#VERSION:0.83;
#TITLE:太陽とバトル;
#ARTIST:つよし;
#TITLETRANSLIT:Taiyou to battle;
#ARTISTTRANSLIT:Tsuyoshi;
#GENRE:J-HOUSE POP;
#CREDIT:B. M'Rey;
#MUSIC:Taiyou to battle.mp3;
#BANNER:Taiyou to battle.png;
#BACKGROUND:Taiyou to battle-bg.png;
#CDTITLE:./CDTITLES/Pop'n Music 13 CARNIVAL.png;
#SAMPLESTART:53.252;
#SAMPLELENGTH:15;
#OFFSET:-0.271;
#BPMS:0=130.082;

//--------------- dance-single - B. M'Rey ----------------
#NOTEDATA:;
#STEPSTYPE:dance-single;
#DESCRIPTION:B. M'Rey;
#DIFFICULTY:Beginner;
#METER:2;
#RADARVALUES:0,0,0,0,0;
#NOTES:
0000
0000
0000
0000
,
0000
0000
0000
0000
,
0000
0000
0000
0000
,
0000
0000
0000
0000
,
0000
0000
0000
1000
,
0000
0000
0000
0010
,
0000
0000
0000
0100
,
0000
0000
0000
0001
,
0000
0000
0000
1000
,
0000
0000
0000
0010
,
0000
0000
0000
0100
,
0000
0000
0000
0001
,
0000
0000
0000
0110
,
0000
0000
0000
1000
,
0000
0000
0000
0010
,
0000
0000
0000
0100
,
0000
0000
0000
0001
,
0000
0000
0000
0010
,
0000
0000
0000
0100
,
0000
0000
0000
0010
,
0000
0000
0000
1000
,
0000
0100
0000
1000
,
0000
0010
0000
0100
,
0000
0001
0000
0010
,
0000
0000
0000
1000
,
0000
0100
0000
1000
,
0000
0010
0000
0100
,
0000
0001
0000
0020
,
0000
0030
0000
0001
,
0000
0010
0000
0001
,
0000
1000
1000
0000
,
0010
0010
0000
0100
,
0000
0000
0000
0001
,
0000
0010
0000
0001
,
0000
0100
0000
0010
,
0000
1000
0000
0010
,
0000
0000
0000
0100
,
0000
0001
0000
0010
,
0000
1000
1000
0000
,
0010
0010
0000
0100
,
0000
0001
0000
0010
,
0000
0100
0000
0010
,
0000
1000
0000
0100
,
0000
1000
0000
0010
,
0010
0001
0001
0100
,
0000
0000
0000
0010
,
0000
0000
0000
0000
,
0000
0000
0000
0001
,
0000
1000
0000
0000
,
0000
0000
0000
0110
,
0000
0000
0000
0000
,
0000
0000
0000
0010
,
0000
0001
0000
1000
,
0000
0000
0000
0001
;

//--------------- dance-single - B. M'Rey ----------------
#NOTEDATA:;
#STEPSTYPE:dance-single;
#DESCRIPTION:B. M'Rey;
#DIFFICULTY:Easy;
#METER:4;
#RADARVALUES:0,0,0,0,0;
#NOTES:
0000
0000
0000
0000
,
0000
0000
0000
0000
,
0000
0000
0000
0000
,
0000
0000
0000
0000
,
0000
0000
0000
1001
,
0000
0100
0000
0010
,
0000
1000
0000
0001
,
0010
0100
1000
0010
,
0000
0000
0000
0100
,
0000
0001
0000
0010
,
0000
1000
0000
0100
,
0000
1000
0000
0010
,
0000
0100
0000
1001
,
0000
0010
0000
0100
,
0000
0010
0000
0001
,
0000
0010
0000
1000
,
0000
0010
0000
0001
,
0001
0000
0010
0000
,
0100
0100
0000
1000
,
0000
0010
0000
0100
,
0001
0100
0000
0001
,
1000
0001
1000
0001
,
0100
0001
0100
0010
,
0100
0010
0100
0010
,
0000
0010
0000
0001
,
1000
0001
1000
0001
,
1000
0001
1000
0010
,
0100
0010
0100
0020
,
0000
0000
0030
0100
,
1000
0010
1000
0010
,
0100
0001
0100
0000
,
1000
0000
0001
0000
,
0000
0001
0000
0100
,
1000
0100
1000
0000
,
0100
0001
0000
0010
,
0000
0100
0000
0002
,
0000
0000
0000
0103
,
1000
0001
0010
0001
,
0100
0000
0100
0000
,
1000
0000
1000
0000
,
0000
0001
0000
0100
,
0010
0000
1000
0010
,
1000
0000
0010
0000
,
0010
0000
1000
0001
,
1000
0001
0100
0020
,
0000
0000
0000
1030
,
0000
0001
0000
0010
,
0000
0001
0000
0100
,
0100
0100
0000
0010
,
0000
1000
0000
1001
,
0000
0010
0000
0100
,
0100
0001
0001
0010
,
0000
0100
0000
1000
,
0000
0001
1000
1001
;

//--------------- dance-single - B. M'Rey ----------------
#NOTEDATA:;
#STEPSTYPE:dance-single;
#DESCRIPTION:B. M'Rey;
#DIFFICULTY:Medium;
#METER:7;
#RADARVALUES:0,0,0,0,0;
#NOTES:
0000
0000
0000
0000
,
0000
0000
0000
0000
,
0000
0000
0000
0000
,
0000
0000
0000
0000
,
0000
0000
0000
0001
,
0010
0100
1000
0100
,
1000
0010
0100
0001
,
0010
0100
1000
0001
,
0010
0100
0010
0001
,
0100
0001
1000
0001
,
0100
0001
0010
0100
,
0010
0001
0000
0100
,
0000
0010
0000
0010
,
0100
0001
1000
0010
,
0100
0001
0010
0100
,
0010
0100
0000
0001
,
0000
0010
0000
0100
,
1000
0100
1000
0001
,
1000
0000
0100
0000
0010
0000
0100
0010
,
0100
0000
0001
0010
1000
0000
0010
0100
,
1000
0000
0001
0010
1000
0000
0001
0010
,
0001
0000
0010
0000
0100
0000
0100
1000
,
0100
0000
0010
0000
0100
0000
0010
0100
,
0010
0000
0001
0010
0001
0000
0100
0000
,
0000
0000
0010
0000
0000
0000
1000
0100
,
1000
0000
0010
0000
0100
0000
0001
0010
,
0001
0000
0010
0000
0100
0000
0010
0100
,
0010
0000
1000
0100
1000
0000
0010
0000
,
0000
0000
0100
0000
0000
0000
0010
1000
,
0100
0001
1000
0001
,
0010
0001
0101
0010
,
0110
0010
1100
0100
,
0000
0100
0000
0001
,
0010
0001
0100
0010
,
1000
0000
0100
0000
1000
0010
0001
0000
,
0010
0000
0100
0000
0010
1000
0100
0000
,
0011
0000
1001
0000
1100
0000
0100
0010
,
0100
0000
0100
0000
0010
0000
0001
1000
,
0010
0100
1010
0010
,
1100
0010
1001
0001
,
0000
0001
0000
0100
,
1000
0010
0100
0001
,
0010
0100
0001
0000
1000
0010
0001
0000
,
0100
0000
0010
0000
0100
0010
0001
0000
,
0010
0100
1000
0200
,
0000
0000
0000
0310
,
0100
0010
1000
0010
,
0100
0001
1000
0110
,
0010
0000
0110
0000
0010
0000
0001
0010
,
0001
0000
0100
1000
0100
0000
0110
0000
,
0100
0001
0010
0100
,
0010
0000
0001
0000
0100
0000
0010
0100
,
1000
0000
0010
0001
0100
0000
0001
0000
,
0010
0100
1000
0110
;

//--------------- dance-single - B. M'Rey ----------------
#NOTEDATA:;
#STEPSTYPE:dance-single;
#DESCRIPTION:B. M'Rey;
#DIFFICULTY:Hard;
#METER:11;
#RADARVALUES:0,0,0,0,0;
#NOTES:
0000
0000
0000
0000
,
0000
0000
0000
0000
,
0000
0000
0000
0000
,
0000
0000
0000
0000
,
0000
0000
0000
0000
0000
0000
0001
0100
,
0010
1000
0000
0100
0010
0100
0001
0000
,
0100
1000
0000
1000
0100
0010
0001
0000
,
0100
1000
0100
0000
0100
0010
0001
0000
,
0100
0000
0000
0000
0010
0000
0100
0000
0001
0000
0000
0000
0001
0000
0000
1000
,
0000
0000
0100
0000
0010
0000
0100
0000
0000
0000
0100
0000
0001
0000
0000
1000
,
0000
0000
0100
0000
0010
0000
0000
0000
0100
0000
1000
0000
0100
0000
0000
0010
,
0000
0000
0010
0000
0001
0000
0000
0000
0010
0000
1000
0010
1000
0000
0000
0010
,
0000
0100
0001
0000
0100
1000
0011
0000
,
0001
0000
0010
0000
0100
0000
1000
0000
0000
0000
1000
0000
0100
0000
0000
0010
,
0000
0000
1000
0000
0100
0000
0000
0000
0100
0000
0010
0000
0100
0000
0000
1000
,
0000
0000
0010
0000
0001
0000
0000
0100
0000
0000
1000
0000
0010
0000
0000
1000
,
0000
0100
0010
0100
0001
0000
0010
1000
,
0001
0100
0001
0000
0001
1000
0100
0010
,
0100
0010
0000
1000
0010
1000
0001
0000
,
0100
0010
0100
0010
0001
0100
0010
0000
,
0100
0010
0100
0000
0001
0000
0001
1000
,
0001
1000
0001
0010
0100
1000
0100
1000
,
0100
0010
0001
0010
0001
0010
0100
1000
,
0100
1000
0100
0010
0001
0010
0001
0000
,
0100
0000
0001
0010
0001
0000
0010
0100
,
0001
0100
0000
0010
0000
1000
0001
1000
,
0100
0000
0010
0000
0100
0010
0001
0010
,
0001
0000
1000
0000
0100
0000
0010
0000
0100
0000
0010
0000
0100
0010
0100
0000
,
0001
1000
0001
0000
0100
0010
0100
0000
0001
0010
0001
0000
0100
0000
1000
0000
,
0100
1000
0001
0000
0001
0100
0010
1000
,
0010
1000
0000
0100
0010
1000
0000
0100
,
0001
0010
0000
1000
0100
1000
0000
0011
,
0000
0010
0001
1000
0100
1000
0010
0100
,
0001
0100
0001
0000
0100
0010
0000
1001
,
0000
1001
0000
0100
0010
0100
0000
1000
,
0100
1000
0001
0010
0001
1000
0011
0000
,
1010
0000
0101
0000
1001
0000
0010
1000
,
0010
1000
0100
0010
0001
1000
0001
1000
,
0100
0010
0000
0010
0001
0100
0000
1000
,
0001
0100
0000
0100
0010
1000
0000
1001
,
0000
0010
0100
0010
0000
1000
0001
1000
,
0001
0010
0000
0010
0100
1000
0001
1000
,
0001
0010
0000
0010
0100
1000
0000
1000
,
0001
0010
0000
0010
0100
1000
0011
0000
,
0110
0011
1001
2002
,
0000
0000
0000
0000
0000
3003
0100
1000
,
0100
1000
0010
1000
0010
1000
0010
1000
,
0010
1000
0100
1000
0001
0010
0100
0010
,
0100
0000
0010
0000
0100
0000
0010
0000
0100
0000
0010
0000
0001
0010
0000
0001
,
0100
0000
0001
1000
0000
0001
0010
0000
0001
0000
0010
0000
0001
0000
1000
0000
,
0001
1000
0100
1000
0100
1000
0100
1000
,
0100
1000
0010
1000
0010
1000
0010
0100
,
0010
0000
0100
0000
0001
0000
0100
0000
0001
0000
0100
0000
0001
0100
0000
0001
,
0100
0000
0010
0100
0000
0010
0100
0000
0010
0000
0100
0000
0010
0000
0000
0000
;
