#TITLE:TROPICAL PALLETE;
#ARTIST:Mr.T;
#GENRE:POP FUSION;
#CREDIT:B. M'Rey;
#MUSIC:Tropical Pallete.ogg;
#BANNER:TROPICAL PALLETE-bn.png;
#BACKGROUND:TROPICAL PALLETE-bg.png;
#CDTITLE:./cdtitles/pop'n music.png;
#SAMPLESTART:10.380;
#SAMPLELENGTH:12.000;
#OFFSET:-1.130;
#BPMS:0.000=130.010;

//--------------- dance-single - B. M'Rey ----------------
#NOTES:
     dance-single:
     B. M'Rey:
     Beginner:
     1:
     0.087,0.128,0.029,0,0:
0000
0000
0000
0000
,
0000
0000
0000
0000
,
0000
0000
0000
0000
,
0000
0000
0000
0000
,
0000
0000
0000
0000
,
0001
0000
0000
0000
,
0100
0000
0000
0000
,
0010
0000
0000
0000
,
1000
0000
0000
0000
,
0001
0000
0000
0000
,
0100
0000
0000
0000
,
0010
0000
0001
0000
,
1000
0000
0000
0000
,
0010
0000
0000
0000
,
0100
0000
0000
0000
,
0001
0000
0000
0000
,
1000
0000
0000
0000
,
0100
0000
0000
0000
,
1000
0000
0000
0000
,
0001
0000
0010
0000
,
0100
0000
0000
0000
,
1000
0000
0001
0000
,
1000
0000
0001
0000
,
1000
0000
0001
0000
,
1000
0000
0000
0000
,
0010
0000
0100
0000
,
0010
0000
0100
0000
,
0010
0000
0100
0000
,
0010
0000
0000
0000
,
0001
0000
0000
0000
,
0100
0000
0000
0000
,
1000
0000
0010
0000
,
0100
0000
0000
0000
,
0001
0000
1000
0000
,
0010
0000
0000
0000
,
0100
0000
0001
0000
,
0010
0000
0000
0000
,
1000
0000
0000
0000
,
0000
0000
0000
0000
,
1001
0000
0000
0000
,
0000
0000
0000
0000
,
0011
0000
0000
0000
,
0000
0000
0000
0000
,
1000
0000
0000
0000
,
0000
0000
0010
0000
,
0100
0000
0001
0000
,
1000
0000
0000
0000
,
0010
0000
0100
0000
,
0001
0000
0010
0000
,
0001
0000
0000
0000
,
1000
0000
0000
0000
,
0010
0000
0000
0000
,
0100
0000
0000
0000
,
0001
0000
0000
0000
,
1001
0000
0000
0000
;

//--------------- dance-single - B. M'Rey ----------------
#NOTES:
     dance-single:
     B. M'Rey:
     Easy:
     1:
     0.129,0.205,0.048,0,0:
0000
0000
0000
0000
,
0000
0000
0000
0000
,
0000
0000
0000
0000
,
1000
0000
0000
0000
,
0001
0000
0000
0000
,
0010
0000
0010
0000
,
0100
0000
1000
0000
,
1000
0000
1000
0000
,
0001
0000
0001
0000
,
0001
0000
0010
0000
,
0100
0000
0010
0000
,
1001
0000
1001
0000
,
1001
0000
0000
0000
,
0010
0000
0010
0000
,
0100
0000
0001
0000
,
0001
0000
1000
0000
,
0000
0000
0010
0000
,
0010
0000
0100
0000
,
0001
0000
1000
0000
,
0001
0000
0100
0000
,
0010
0000
0000
0000
,
1000
0000
0001
0000
,
0010
0000
0100
0000
,
0010
0000
1000
0000
,
0100
0000
0000
0000
,
0001
0000
0010
0000
,
0100
0000
0010
0000
,
1000
0000
0001
0000
,
0010
0000
0000
0000
,
0100
0000
0100
0000
,
0100
0000
0010
0000
,
0001
0000
1000
0000
,
0100
0000
1000
0000
,
0010
0000
0010
0000
,
0010
0000
0001
0000
,
1000
0000
0010
0000
,
1001
0000
0000
0000
,
0010
0000
0000
0000
,
0100
0000
0000
0000
,
0001
0001
0000
0000
,
1000
0000
0000
0000
,
0100
0100
0000
0000
,
0010
0000
0000
0000
,
0001
0000
0000
0000
,
1000
0000
0000
0000
,
0100
0010
0100
0000
,
0001
0010
0001
0000
,
1000
1000
0000
0000
,
0001
0001
0000
0000
,
0100
0010
0100
0000
,
0100
0010
0100
0000
,
0001
0000
0000
0000
,
1000
0000
0000
0000
,
0010
0000
0000
0000
,
1001
0000
0000
0000
;

//--------------- dance-single - B. M'Rey ----------------
#NOTES:
     dance-single:
     B. M'Rey:
     Medium:
     2:
     0.194,0.231,0.029,0.01,0:
0000
0000
0000
0000
,
0000
0000
0000
0000
,
0000
0000
0000
0000
,
0000
0000
0000
0000
,
0000
0000
0000
0000
,
0100
0010
1000
0100
,
0001
0000
0010
0100
,
0010
1000
0100
0000
,
0001
0000
0010
0100
,
0010
1000
0100
0001
,
0100
0000
0010
1000
,
0010
0000
0100
0000
,
1001
0000
0000
0000
,
0010
0100
0001
1000
,
0100
0000
0010
1000
,
0001
0100
0010
0000
,
0001
0000
0001
1000
,
0100
0010
1000
0100
,
1000
0000
0001
0100
,
0010
0000
0001
0000
,
1000
0000
0000
0000
,
0010
0100
1000
0100
,
0010
0000
0001
0000
,
0010
0100
1000
0100
,
1000
0000
0010
0000
,
0100
0001
0010
1000
,
0100
1000
0010
0000
,
0001
0000
0100
0010
,
1000
0000
0000
0000
,
0001
0001
1000
1000
,
0001
0001
1000
0010
,
0100
0010
1000
0001
,
0100
0000
0010
0000
,
0100
0100
0010
0010
,
0100
0100
0001
0010
,
1000
0000
0100
0000
,
1001
0000
0000
0000
,
0010
0000
0010
0000
,
0010
0000
0010
0000
,
0100
0100
0000
1000
,
0000
1000
0000
1000
,
0001
0001
0000
0010
,
0000
0010
0000
0010
,
0020
0000
0000
0000
,
1030
0000
0000
0000
,
0001
0010
1000
0000
,
0100
0010
0001
1000
,
0010
0100
0010
0100
,
0010
1000
0100
0000
,
0001
0001
0001
0001
,
1000
1000
1000
1000
,
0010
0000
0100
0000
,
0100
0000
0100
0000
,
0001
0000
1000
0000
,
1001
0000
0000
0000
;

//--------------- dance-single - B. M'Rey ----------------
#NOTES:
     dance-single:
     B. M'Rey:
     Hard:
     5:
     0.374,0.437,0.114,0.105,0.038:
0000
0000
0000
0000
,
2002
0000
0000
0000
,
3003
0000
0001
0010
,
0200
0000
0000
0000
,
0301
0000
0010
0010
,
0100
0010
1000
0100
,
1000
0000
0001
0010
,
0100
0000
0010
0001
0100
0000
0000
0000
,
0010
0000
1000
0100
,
0010
0000
1000
0100
1000
0000
0010
0000
,
0100
0000
0001
0010
,
0100
0000
0000
0001
1000
0001
1000
0000
0000
0000
0000
0000
,
0010
0100
1001
1001
,
0010
0000
0100
0000
0001
0000
0010
1000
,
0100
0010
0001
0100
,
0010
0000
0001
1000
0010
0000
0100
0000
,
1000
0100
0001
0010
,
0010
0000
0100
1000
0100
0000
0010
0000
,
0001
0000
0010
0100
,
1000
0000
0000
1000
0001
1000
0001
0000
0000
0100
0000
0000
,
0010
0000
0100
0000
0001
0000
1000
0010
,
0100
0000
0010
0001
0010
0000
0100
1000
,
0100
0000
0010
1000
0010
0000
0100
0001
,
0010
0000
1000
0010
0100
0000
0001
0010
,
0100
0000
1000
0000
0100
0000
1000
0010
,
1000
0000
0100
0010
1000
0000
0100
0010
,
0001
0000
0010
0100
1000
0000
0010
0100
,
0001
0000
0010
1000
0100
0000
0001
0000
,
1000
0000
1001
1001
,
0001
1000
0010
0100
0001
1000
0010
0100
,
0001
1000
0010
0100
0001
0000
0010
1000
,
0100
0001
0010
0100
,
1000
0010
0100
0000
0010
1000
0100
0000
,
0001
0010
0100
1000
0100
0010
0001
0010
,
0100
1000
0100
0010
0001
0000
0010
0000
,
1000
0100
0001
0000
0010
1000
0100
0000
,
0001
1000
0001
0000
,
1001
0010
1000
0100
,
0010
0001
0010
0100
,
1001
0000
0000
1001
0000
0000
0000
0000
0010
0000
0000
0000
0100
0000
0000
0000
,
1000
0001
0100
0010
,
1001
0000
0000
1001
0000
0000
0000
0000
0010
0000
0000
0000
0100
0000
0000
0000
,
0001
0000
0010
0100
1000
0010
0100
0001
,
0020
0000
0000
0000
,
1030
0000
0010
0100
,
0001
0010
0100
0001
0010
1000
0000
0000
,
0001
0010
0100
0010
1000
0100
0001
0010
,
0001
0100
0010
1000
0100
1000
0100
1000
,
0010
0100
0001
0010
0100
0001
0000
0000
,
0001
0010
1000
0100
0010
0000
1000
0000
,
0001
0010
0100
1000
0100
0000
0010
0100
,
0001
2000
3020
0230
,
0302
0023
2030
3200
,
0310
0000
0000
0010
0000
0010
0000
0000
0001
0000
0000
0000
0000
0000
0000
0000
,
1001
1001
0000
0000
0000
0000
0000
0000
;
