#TITLE:TRIP MACHINE -LSD MIX-;
#ARTIST:DE-SIRE;
#GENRE:HARD TECHNO;
#CREDIT:B. M'Rey;
#MUSIC:TRIP MACHINE -LSD MIX-.ogg;
#BANNER:TRIP MACHINE -LSD MIX--bn.png;
#BACKGROUND:TRIP MACHINE -LSD MIX--bg.png;
#CDTITLE:./CDTITLES/DDR LEGACY.PNG;
#SAMPLESTART:13.064;
#SAMPLELENGTH:12.000;
#OFFSET:-0.091;
#BPMS:0.000=148.000;

//--------------- dance-single - B. M'Rey ----------------
#NOTES:
     dance-single:
     B. M'Rey:
     Beginner:
     2:
     0,0,0,0,0:
0000
0000
0000
0000
,
0000
0000
0000
0000
,
0000
0000
0000
0000
,
0000
0000
0000
0000
,
0010
0000
0001
0000
,
0100
0000
0010
0000
,
0001
0000
0100
0000
,
1000
0000
0000
0000
,
0001
0010
0001
0000
,
0100
0000
0010
0000
,
0001
0100
0010
0000
,
0010
0000
0100
0000
,
0010
0100
0001
0000
,
0010
0000
0001
0000
,
0010
0100
0001
0000
,
0100
0000
0001
0000
,
0100
0010
0001
0000
,
0001
0010
0100
0000
,
1000
0000
0010
0000
,
0100
0000
0001
0000
,
0010
0000
0001
0000
,
1000
0000
0010
0000
,
0100
0000
0001
0000
,
1000
0000
0010
0000
,
0200
0000
0000
0000
,
0320
0000
0000
0000
,
0032
0000
0000
0000
,
0023
0000
0000
0000
,
1030
0100
0001
0000
,
0100
1000
0010
0000
,
0010
0100
0010
0000
,
0010
0000
0001
0000
,
0010
0000
0001
0000
,
0001
0100
0010
0000
,
0010
1000
0001
0000
,
0001
1000
0010
0000
,
0001
1000
0100
0000
,
0100
1000
0100
0000
,
0001
0010
0100
0000
,
0010
0100
0001
0000
,
0001
0100
0010
0000
,
0010
0100
0001
0000
,
0100
0000
0001
0000
,
0001
0010
0001
0000
,
0010
0000
0100
0000
,
0100
1000
0100
0000
,
0010
0000
0001
0000
,
0010
0100
0010
0000
,
0001
0000
0001
0000
,
0002
0000
0000
0000
,
0023
0000
0230
0000
,
1300
0000
0001
0000
,
0100
0000
0010
0000
,
1000
0000
0001
0000
,
0010
0000
0001
0000
,
1000
0100
0010
0000
,
0010
0100
0001
0000
,
0002
0000
0000
0000
,
0023
0000
0000
0000
,
0230
0000
0000
0000
,
0302
0000
0000
0000
,
0203
0000
0000
0000
,
0302
0000
0000
0000
,
0013
0100
0001
0000
,
0100
0000
0100
0000
,
0100
0000
0000
0000
,
0002
0000
0000
2000
,
0000
0000
0000
3003
;

//--------------- dance-single - B. M'Rey ----------------
#NOTES:
     dance-single:
     B. M'Rey:
     Easy:
     4:
     0,0,0,0,0:
0000
0000
0000
0000
,
0000
0000
0000
0000
,
0000
0000
0000
0000
,
0000
0000
0000
0000
,
0001
0100
0010
1000
,
0010
0100
0010
0100
,
0001
1000
0001
0100
,
0010
1000
0001
0010
,
0100
1000
0110
0000
,
0110
0000
0110
0000
,
0010
0100
0001
0010
,
0100
1000
0100
0000
,
0100
0010
0101
0000
,
0101
0000
0101
0000
,
0001
0100
0010
0100
,
0010
1000
0100
0010
,
0101
0101
0110
1000
,
0110
0100
0011
0100
,
0010
1000
0010
1000
,
0010
0100
0001
0010
,
0100
0010
0001
0100
,
0001
0010
0001
1000
,
0010
1000
0100
1000
,
0001
0010
0100
1000
,
0002
0000
0023
0000
,
2030
0000
3002
0000
,
0103
0010
0001
0000
,
0010
0100
0010
0000
,
0001
1000
0001
0100
,
0001
1000
0010
0100
,
0010
0100
0010
1000
,
0001
0100
0010
1000
,
0110
0110
0110
0100
,
0010
1000
0100
0010
,
0001
0100
0010
1000
,
0010
1000
0010
0100
,
0001
0100
0010
1000
,
0100
1000
0100
0010
,
0001
0010
0100
1000
,
0010
0100
0010
0100
,
0010
1000
0001
0100
,
0001
0100
0110
0000
,
0110
0000
0110
0000
,
0100
1000
0100
0010
,
0001
0100
0010
0000
,
0001
0010
1100
0000
,
1100
0000
1100
0000
,
0010
1000
0100
1000
,
0100
0010
0001
0010
,
0002
0000
0203
0000
,
0302
0000
0023
0000
,
1030
0001
0100
0010
,
0001
1000
0010
0100
,
0001
1000
0010
1000
,
0100
1000
0001
0010
,
0001
0010
0100
1000
,
0001
0010
0001
1000
,
0002
0000
0203
0000
,
2300
0000
3020
0000
,
0032
0000
0203
0000
,
0302
0000
0203
0000
,
0301
1000
0001
0010
,
0001
1000
0001
0010
,
0100
1000
1010
0000
,
1010
0000
0001
1000
,
0001
0100
0001
1000
,
0200
0000
0000
0020
,
0000
0000
0000
0000
,
0330
0000
0000
0000
;

//--------------- dance-single - B. M'Rey ----------------
#NOTES:
     dance-single:
     B. M'Rey:
     Medium:
     6:
     0,0,0,0,0:
0000
0000
0000
0000
,
0000
0000
0000
0000
,
0000
0000
0000
0000
,
0000
0000
0000
0000
,
0001
0100
0001
1000
,
0010
1000
0010
0100
,
0001
0010
0001
0010
,
0001
0100
0010
1000
,
0010
1000
0100
0010
0001
0000
0100
0000
,
0001
0100
0010
1000
,
0010
0001
0100
1000
0010
0000
1000
0000
,
0001
1000
0001
0010
,
0001
0010
0100
1000
0010
0000
1000
0000
,
0100
0010
0100
0010
,
0100
0001
1000
0100
0010
0000
0100
0000
,
0010
1000
0010
0100
,
1001
1010
0101
1010
,
0101
0110
0011
1100
,
0001
1000
0010
0000
0001
0100
1000
0000
,
0100
1000
0010
0000
0001
0100
0010
0000
,
0100
0001
1000
0000
0001
0010
1000
0000
,
0100
0001
0010
0000
0100
0010
1000
0000
,
0100
0010
1000
0000
0001
0010
0100
0000
,
0001
0010
0100
0000
0010
0100
1000
0000
,
0001
1000
0001
1000
,
0100
0010
0100
0010
,
0001
1000
0100
0010
,
0001
0100
0010
0100
,
0001
0010
1000
0000
0100
0010
1000
0000
,
0010
0001
0100
0000
0001
0100
1000
0000
,
0001
0010
1000
0000
0010
0000
0100
0000
,
0010
0100
1000
0000
0001
0000
0010
0000
,
0011
1100
0011
0110
,
0010
1000
0100
1000
,
0010
0100
0001
1000
,
0010
1000
0010
0100
,
0001
0010
0001
1000
,
0001
0010
0100
1000
,
0010
1000
0001
0010
,
0100
0010
0100
0010
,
0001
0100
0001
0100
,
0001
0010
1000
0010
0100
0000
0010
0000
,
0100
1000
0010
0100
,
0001
0010
0100
1000
0001
0000
0100
0000
,
0010
1000
0100
1000
,
0001
0010
0100
1000
0001
0000
1000
0000
,
0100
0010
0100
1000
,
0010
1000
0100
0010
0001
0000
0100
0000
,
0010
1000
0010
0100
,
0011
0110
1001
1100
,
0011
0110
1010
0110
,
0001
1000
0010
0000
0100
0000
0010
0000
,
0001
0010
1000
0000
0100
0000
1000
0000
,
0010
0100
1000
0000
0001
0000
0100
0000
,
0010
0001
0100
0000
0001
0000
1000
0000
,
0001
0010
0100
0000
0010
0000
1000
0000
,
0001
1000
0010
0000
0001
0000
0100
0000
,
0001
0100
0010
0100
,
0010
1000
0001
0100
,
0010
1000
0001
1000
,
0100
1000
0010
0100
,
0010
1000
0010
1000
,
0100
0010
0001
0010
,
0100
0010
1000
0000
0010
0001
0100
0000
,
0001
1000
0010
0000
0100
0001
0010
0000
,
0100
1000
0010
1000
,
0002
0000
0000
0020
,
0000
0000
0000
0000
,
0033
0000
0000
0000
;

//--------------- dance-single - B. M'Rey ----------------
#NOTES:
     dance-single:
     B. M'Rey:
     Hard:
     8:
     0,0,0,0,0:
0000
0000
0000
0000
,
0000
0000
0000
0000
,
0000
0000
0000
0000
,
0000
0000
0000
0000
,
0010
1000
0001
0100
0010
0100
0001
0010
,
0100
1000
0001
0100
0010
1000
0001
0100
,
0010
0100
0001
0100
0010
1000
0010
0100
,
0010
1000
0100
0010
0100
0010
0100
1000
,
0010
1000
0001
0010
0100
0010
0000
1000
,
0001
0100
0000
1000
0100
1000
0000
0100
,
0001
0010
0100
1000
0001
0010
0000
0011
,
0000
1100
0000
1100
0000
0011
0000
0010
,
0100
1000
0010
0100
0010
0100
0000
0010
,
0001
1000
0000
0010
0100
0010
0000
0010
,
0100
1000
0100
1000
0100
0010
0000
0110
,
0000
0101
0000
1000
0010
1000
0001
1000
,
0110
1001
0101
0110
,
1010
1010
0110
1100
,
0001
1000
0010
1000
0010
0100
0001
0100
,
0001
0010
0001
0010
0100
0010
0100
1000
,
0100
1000
0010
1000
0010
0100
0010
0100
,
0001
0100
0001
1000
0001
1000
0100
1000
,
0100
0010
0100
0010
0001
0010
0001
1000
,
0001
1000
0100
1000
0100
0010
0100
0010
,
0011
0110
1001
0101
,
1010
1100
1100
0101
,
1001
1001
1100
0110
,
0110
0011
0101
0110
,
0001
0100
0010
0000
0001
1000
0001
0000
,
0100
0010
0100
0000
0001
0100
0001
0000
,
0100
1000
0100
0010
0001
0100
0001
0010
,
0001
0100
0010
0100
0001
1000
0010
1000
,
0110
0011
1001
0011
,
0001
0010
0001
1000
0010
0100
0001
0010
,
0001
1000
0001
1000
0100
0010
0100
1000
,
0100
1000
0010
0100
0010
0100
0010
1000
,
0001
1000
0010
1000
0001
0100
0001
1000
,
0010
0100
0010
1000
0001
1000
0001
0010
,
0001
0010
0100
0010
0100
1000
0100
0010
,
0001
0100
0001
1000
0010
0100
0010
0100
,
0001
0010
0100
0010
0100
1000
0100
1000
,
0001
1000
0001
0100
0001
0100
0000
0100
,
0010
1000
0000
1000
0001
1000
0000
0100
,
0010
0100
0010
1000
0100
1000
0000
1100
,
0000
0110
0000
0101
0000
0110
0000
1000
,
0010
0100
0010
0100
0001
1000
0000
1000
,
0010
1000
0000
0010
0001
0010
0000
0100
,
0001
0100
0010
0100
0010
1000
0000
1010
,
0000
1100
0000
0100
0010
0100
0010
0001
,
0011
0101
0011
1100
,
0110
0011
0110
0101
,
0100
0010
0100
0000
0010
0100
0010
0000
,
0100
0010
0001
1000
0100
0010
0001
0100
,
0001
0100
0001
0000
0100
1000
0010
0000
,
0001
0100
0010
1000
0100
1000
0001
0100
,
0001
1000
0001
0000
0100
0010
0001
0000
,
0010
0100
0010
0100
0001
0010
0100
0010
,
0100
1000
0100
1000
,
0001
0100
0010
1000
,
0001
1000
0100
1000
,
0010
0100
0010
1000
,
0100
0010
0001
0000
0001
0100
0010
0000
,
0010
1000
0010
0000
0001
1000
0010
0000
,
0010
0100
0001
1000
0100
0010
0000
0011
,
0000
0110
0000
1100
0000
0010
0001
1000
,
0010
0100
0010
0000
0100
0000
0001
0000
,
2000
0000
0000
3020
0000
0000
0032
0000
,
0000
0200
0000
0000
0000
0000
0000
0000
,
0303
0000
0000
0000
;
