#VERSION:0.83;
#TITLE:TRIBAL DANCE (REVIL O SHORT MIX);
#ARTIST:2 UNLIMITED;
#GENRE:TRANCE;
#CREDIT:B. M'Rey;
#MUSIC:TRIBAL DANCE (REVIL O SHORT MIX).ogg;
#BANNER:TRIBAL DANCE (REVIL O SHORT MIX)-bn.png;
#BACKGROUND:TRIBAL DANCE (REVIL O SHORT MIX)-bg.png;
#CDTITLE:./CDTITLES/DANCEMANIA EX0.PNG;
#SAMPLESTART:40.440;
#SAMPLELENGTH:15.000;
#OFFSET:-0.120;
#BPMS:0.000=140.022,128.000=280.059,192.688=140.022;
#DISPLAYBPM:140.000;

//--------------- dance-single - B. M'Rey ----------------
#NOTEDATA:;
#STEPSTYPE:dance-single;
#DESCRIPTION:B. M'Rey;
#DIFFICULTY:Beginner;
#METER:2;
#RADARVALUES:0.091538,0.187359,0.017318,0.008659,0,74,72,2,1,0,0,0.091538,0.187359,0.017318,0.008659,0,74,72,2,1,0,0;
#NOTES:
0000
0000
0000
0000
,
0000
0000
0000
0000
,
0000
0000
0000
0000
,
0000
0000
0000
0000
,
1000
0000
0000
0000
,
0001
0000
0000
0000
,
0010
0000
0000
0000
,
0100
0000
0000
0000
,
0001
0000
0000
0000
,
1000
0000
0000
0000
,
0010
0000
0000
0000
,
0100
0000
0000
0000
,
0001
0000
0000
0000
,
0010
0000
0000
0000
,
0001
0000
0000
0000
,
0100
0000
0000
0000
,
0010
0000
0000
0000
,
1000
0000
0000
0000
,
0001
0000
0000
0000
,
0010
0000
0000
0000
,
0100
0000
0000
0000
,
0001
0000
0000
0000
,
1000
0000
0000
0000
,
0010
0000
0000
0000
,
1000
0001
0000
0000
,
0001
0000
0000
0000
,
0010
1000
0000
0000
,
0100
0000
0000
0000
,
0010
0001
0000
0000
,
0010
0000
0000
0000
,
0100
1000
0000
0000
,
0010
0000
0000
0000
,
1001
0000
0000
0000
,
0000
0000
0000
0000
,
0000
0000
0000
0000
,
0000
0000
0000
0000
,
0000
0000
0000
0000
,
0000
0000
0000
0000
,
0000
0000
0000
0000
,
0000
0000
0000
0000
,
0000
0000
0000
0000
,
0000
0000
0000
0000
,
0000
0000
0000
0000
,
0000
0000
0000
0000
,
0000
0000
0000
0000
,
0000
0000
0000
0000
,
0000
0000
0000
0000
,
0000
0000
0000
0000
,
0000
1000
0000
0000
0000
0000
0000
0000
,
0000
0010
0000
0000
0000
0000
0000
0000
,
0000
0100
0000
0000
0000
0000
0000
0000
,
0000
0001
0000
0000
0000
0000
0000
0000
,
0000
0010
0000
0000
0000
0000
0000
0000
,
0000
1000
0000
0000
0000
0000
0000
0000
,
0000
0010
0000
0000
0000
0000
0000
0000
,
0000
0002
0000
0000
0000
0000
0000
0000
,
0000
0003
0000
0000
0000
0000
0000
0000
,
0000
1000
0000
0000
0000
0010
0000
0000
,
0000
0100
0000
0000
0000
0001
0000
0000
,
0000
0010
0000
0000
0000
0001
0000
0000
,
0000
0100
0000
0000
0000
0010
0000
0000
,
0000
1000
0000
0000
0000
0010
0000
0000
,
0000
0100
0000
0000
0000
0001
0000
0000
,
0000
0100
0000
0000
0000
0010
0000
0000
,
0000
1000
0000
0000
0000
0010
0000
0000
,
0000
0100
0000
0000
0000
0001
0000
0000
,
0000
0010
0000
0000
0000
0100
0000
0000
,
0000
1000
0000
0000
0000
0010
0000
0000
,
0000
0100
0000
0000
0000
0001
0000
0000
,
0000
0010
0000
0000
0000
0001
0000
0000
,
0000
0100
0000
0000
0000
0010
0000
0000
,
0000
0001
0000
0000
0000
0010
0000
0000
,
0000
1001
0000
0000
0000
0000
0000
0000
;

//--------------- dance-single - B. M'Rey ----------------
#NOTEDATA:;
#STEPSTYPE:dance-single;
#DESCRIPTION:B. M'Rey;
#DIFFICULTY:Easy;
#METER:5;
#RADARVALUES:0.183076,0.312265,0.103908,0.025977,0,148,136,12,3,0,0,0.183076,0.312265,0.103908,0.025977,0,148,136,12,3,0,0;
#NOTES:
0000
0000
0000
0000
,
0000
0000
0000
0000
,
0000
0000
0000
0000
,
0000
0000
0000
0000
,
1000
0000
0001
0000
,
1001
0000
0100
0000
,
0001
0000
1000
0000
,
1001
0000
0000
0000
,
0100
0000
0001
0000
,
1001
0000
0010
0000
,
0100
0000
0001
0000
,
0101
0000
0010
0000
,
1000
0000
0010
0000
,
1010
0000
0100
0000
,
0010
0000
0100
0000
,
0110
0000
0001
0000
,
0010
0000
1000
0000
,
1010
0000
0100
0000
,
0001
0000
0010
0000
,
0011
0000
0010
0000
,
1000
0000
0001
0000
,
1001
0000
0010
0000
,
0100
0000
1000
0000
,
1100
0000
0000
0001
,
0010
0100
0000
1000
,
0000
0001
0000
0010
,
0100
1000
0000
0010
,
0000
0001
0000
0010
,
0100
1000
0000
0010
,
0000
0001
0000
0010
,
0100
0001
0000
1000
,
0000
0010
0000
0100
,
0002
0000
0000
0000
,
0000
0000
0000
0000
,
0000
0000
0000
0000
,
0000
0000
0000
0000
,
0000
0000
0000
0000
,
0000
0000
0000
0000
,
0000
0000
0000
0000
,
0000
0000
0000
0000
,
0000
0000
0000
0000
,
0003
0000
0000
0000
,
0000
0000
0000
0000
,
0000
0000
0000
0000
,
0000
0000
0000
0000
,
0000
0000
0000
0000
,
0000
0000
0000
0000
,
0000
0000
0000
0000
,
0000
1000
0000
0000
0000
1000
0000
0000
,
0000
0001
0000
0000
0000
0001
0000
0000
,
0000
0010
0000
0000
0000
0010
0000
0000
,
0000
0100
0000
0000
0000
0100
0000
0000
,
0000
0001
0000
0000
0000
0001
0000
0000
,
0000
1000
0000
0000
0000
1000
0000
0000
,
0000
0010
0000
0000
0000
0010
0000
0000
,
0000
0220
0000
0000
0000
0000
0000
0000
,
0000
0330
0000
0000
0000
0000
0000
0000
,
0000
0001
0000
1000
0000
0001
0000
1000
,
0000
0001
0000
0010
0000
0001
0000
0010
,
0000
0100
0000
0010
0000
0100
0000
0010
,
0000
1000
0000
0010
0000
1000
0000
0010
,
0000
1000
0000
0001
0000
1000
0000
0001
,
0000
1000
0000
0010
0000
1000
0000
0010
,
0000
1000
0000
0100
0000
1000
0000
0100
,
0000
0001
0000
0010
0000
0001
0000
0010
,
0000
0001
0000
0100
0000
0001
0000
0100
,
0000
0001
0000
0010
0000
1000
0000
0010
,
0000
1000
0000
0100
0000
0010
0000
0100
,
0000
0010
0000
0001
0000
0010
0000
0001
,
0000
0010
0000
1000
0000
0100
0000
1000
,
0000
0100
0000
0001
0000
0010
0000
0001
,
0000
0010
0000
0100
0000
0010
0000
0100
,
0000
0110
0000
0000
0000
0000
0000
0000
;

//--------------- dance-single - B. M'Rey ----------------
#NOTEDATA:;
#STEPSTYPE:dance-single;
#DESCRIPTION:B. M'Rey;
#DIFFICULTY:Medium;
#METER:9;
#RADARVALUES:0.329041,0.43717,0.077931,0.017318,0.216475,266,257,9,2,0,0,0.329041,0.43717,0.077931,0.017318,0.216475,266,257,9,2,0,0;
#NOTES:
0000
0000
0000
0000
,
0000
0000
0000
0000
,
0000
0000
0000
0000
,
0000
0000
0000
0000
,
1000
0001
0010
0100
,
1000
0010
0100
0001
,
0010
0100
1000
0100
,
0010
0000
0000
0000
,
0010
0010
0000
0000
1000
1000
0000
0000
,
1001
0000
0000
0000
1000
0001
1000
0000
,
0010
0010
0000
0000
1000
1000
0000
0000
,
1001
0000
0000
0000
0010
0100
0010
0000
,
0010
0010
0000
0000
0100
0100
0000
0000
,
0110
0000
0000
0000
0001
0010
0001
0000
,
0001
0001
0000
0000
0010
0010
0000
0000
,
1100
0000
0000
0000
0100
1000
0100
0000
,
0100
0100
0000
0000
1000
1000
0000
0000
,
0101
0000
0000
0000
0001
0100
0001
0000
,
0001
0001
0000
0000
0100
0100
0000
0000
,
1010
0000
0000
0000
0010
1000
0010
0000
,
0010
0010
0000
0000
1000
1000
0000
0000
,
0110
0000
0000
0000
0010
0100
0010
0000
,
0010
0010
0000
0000
0100
0100
0000
0000
,
1001
0000
0000
0000
0001
1000
0001
1000
,
0001
0000
0000
0000
1000
0000
0000
0000
0000
0000
0100
0000
0000
0010
0000
0000
,
0001
0000
0000
1000
0000
0000
0010
0000
0000
0000
0001
0000
0010
0000
0100
0000
,
1000
0000
0000
0000
0001
0000
0000
0000
0000
0000
0100
0000
0000
0010
0000
0000
,
0001
0000
0000
1000
0000
0000
0010
0000
0000
0000
0100
0000
0010
0000
1000
0000
,
0001
0000
0000
0000
1000
0000
0000
0000
0000
0000
0100
0000
0000
0001
0000
0000
,
0010
0000
0000
0100
0000
0000
1000
0000
0000
0000
0001
0000
1000
0000
0001
0000
,
1000
0000
0001
0000
1000
0000
0000
0000
0000
0000
0010
0000
0000
0001
0000
0000
,
0010
0000
0000
0100
0000
0000
1000
0000
0000
0001
0000
0000
0010
0000
0100
0000
,
2002
0000
0000
0000
,
0000
0000
0000
0000
,
0000
0000
0000
0000
,
0000
0000
0000
0000
,
0000
0000
0000
0000
,
0000
0000
0000
0000
,
0000
0000
0000
0000
,
0000
0000
0000
0000
,
0000
0000
0000
0000
,
0000
0000
0000
0000
,
0000
0000
0000
0000
,
0000
0000
0000
0000
,
0000
0000
0000
0000
,
0000
0000
0000
0000
,
0000
0000
0000
0000
,
0000
0000
0000
0000
0000
0000
0000
0000
0000
0000
0000
0000
0000
0000
0000
3003
,
0000
0000
1000
0000
0000
0100
0000
0000
1000
0000
0000
0100
0000
0000
0010
0000
,
0001
0000
0010
0000
0000
0010
0000
0000
0001
0000
0000
0010
0000
0000
1000
0000
,
0001
0000
1000
0000
0000
0001
0000
0000
1000
0000
0000
0001
0000
0000
1000
0000
,
0100
0000
1000
0000
0000
0100
0000
0000
1000
0000
0000
0100
0000
0000
0100
0000
,
0010
0000
0100
0000
0000
0010
0000
0000
0100
0000
0000
0010
0000
0000
0100
0000
,
0001
0000
0100
0000
0000
0001
0000
0000
0100
0000
0000
0001
0000
0000
1000
0000
,
0010
0000
1000
0000
0000
0010
0000
0000
1000
0000
0000
0010
0000
0000
0001
0000
,
1000
0001
0000
0000
0000
0000
0000
0000
,
0000
0000
0000
0000
,
0000
0000
1000
0000
0000
0001
0000
0000
0010
0000
0000
0100
0000
0000
1000
0000
,
0001
0000
1000
0000
0000
0100
0000
0000
0010
0000
0000
0001
0000
0000
0010
0000
,
0100
0000
0010
0000
0000
1000
0000
0000
0001
0000
0000
0010
0000
0000
0100
0000
,
0010
0000
0100
0000
0000
1000
0000
0000
0100
0000
0001
0000
0100
0000
0001
0000
,
0100
0000
0001
0000
0000
0010
0000
0000
1000
0000
0000
0100
0000
0000
0010
0000
,
0001
0000
0010
0000
0000
0100
0000
0000
1000
0000
0000
0001
0000
0000
0010
0000
,
0100
0000
0010
0000
0000
1000
0000
0000
0001
0000
0000
0010
0000
0000
0100
0000
,
0010
0000
0100
0000
0000
0001
0000
0000
1000
0000
0001
0000
1000
0000
0001
0000
,
1000
0000
0001
0000
0000
0010
0000
0000
0100
0000
0000
1000
0000
0000
0001
0000
,
0010
0000
0001
0000
0000
0100
0000
0000
0010
0000
0000
1000
0000
0000
0001
0000
,
0100
0000
0001
0000
0000
0010
0000
0000
1000
0000
0000
0001
0000
0000
0010
0000
,
0100
0000
1000
0000
0000
0100
0000
0000
0001
0000
0100
0000
0010
0000
0100
0000
,
0010
0000
0100
0000
0000
1000
0000
0000
0001
0000
0000
0010
0000
0000
0100
0000
,
0010
0000
0100
0000
0000
1000
0000
0000
0001
0000
0000
0010
0000
0000
0100
0000
,
0001
0000
0100
0000
0000
0010
0000
0000
1000
0000
0000
0001
0000
0000
0010
0000
,
0100
1000
0000
0000
0000
0000
0000
0000
;

//--------------- dance-single - B. M'Rey ----------------
#NOTEDATA:;
#STEPSTYPE:dance-single;
#DESCRIPTION:B. M'Rey;
#DIFFICULTY:Hard;
#METER:12;
#RADARVALUES:0.437897,0.686982,0.112567,0.051954,0.194827,354,341,13,6,0,0,0.437897,0.686982,0.112567,0.051954,0.194827,354,341,13,6,0,0;
#NOTES:
0000
0000
0000
0000
,
0000
0000
0000
0000
,
0000
0000
0000
0000
,
0000
0000
0000
0000
,
1000
0000
0000
0001
0000
0000
0000
0000
0100
0000
0010
0000
0000
0000
0000
0000
,
1000
0000
0000
0000
0000
0000
0000
0001
0010
0000
0100
0000
1000
0000
0000
0100
,
0000
0001
0000
0000
0001
0010
0000
0000
,
1001
0000
0000
0000
,
1000
0001
0010
0100
1000
0001
0010
0001
,
0100
0000
0000
0000
1000
0000
0000
0010
0001
0000
0100
0000
0010
0000
0000
1000
,
0000
0100
0001
0010
1000
0100
0001
0010
,
0100
0000
0000
0000
1000
0000
0000
0010
0001
0000
0100
0000
0010
0000
0000
0100
,
0000
1000
0001
0010
0100
0001
1000
0010
,
0100
0000
0000
0000
0001
0000
0000
0100
0010
0000
0001
0000
1000
0000
0000
0010
,
0000
0100
0001
0010
1000
0100
1000
0001
,
0010
0000
0000
0000
0100
0000
0000
0100
1000
0000
0001
0000
0010
0000
0000
0100
,
0000
1000
0100
0001
0010
0100
0010
1000
,
0100
0000
0000
0000
0001
0000
0000
0100
0010
0000
0001
0000
0010
0000
0000
1000
,
0000
0100
0001
0010
1000
0100
0010
1000
,
0001
0000
0000
0000
0010
0000
0000
1000
0100
0000
0001
0000
0010
0000
0000
0100
,
0000
1000
0100
0001
0010
0001
0100
0010
,
1000
0000
0000
0000
0100
0000
0000
0001
0010
0000
1000
0000
0100
0000
0000
0001
,
0000
0010
0100
1000
0001
0010
0001
0100
,
0002
0000
0000
0000
0000
0000
0000
0000
0000
0000
0000
0000
0000
0000
0000
0003
2000
0000
0000
0000
0000
0000
0000
0000
0000
0000
0000
0000
0000
0000
0000
3000
0002
0000
0000
0000
0000
0000
0000
0000
0000
0000
0000
0000
0000
0000
0000
0003
2000
0000
0000
0000
0000
0000
0000
0000
0000
0000
0000
0000
0000
0000
0000
3000
,
0001
0000
0000
0000
0010
0000
0000
0000
0000
0000
1000
0000
0000
0100
0000
0000
,
0001
0000
0000
0010
0000
0000
0100
0000
0000
0000
1000
0000
0001
0000
1000
0000
,
0001
0000
0000
0000
0100
0000
0000
0000
0000
0000
1000
0000
0000
0100
0000
0000
,
0010
0000
0000
0001
0000
0000
0100
0000
0000
0000
0010
0000
1000
0000
0010
0000
,
1000
0000
0000
0000
0100
0000
0000
0000
0000
0000
0001
0000
0000
0010
0000
0000
,
0100
0000
0000
1000
0000
0000
0100
0000
0000
0000
0001
0000
1000
0000
0001
0000
,
1000
0000
0000
0000
0010
0000
0000
0000
0000
0000
0001
0000
0000
0100
0000
0000
,
0010
0000
0000
1000
0000
0000
0100
0000
0000
0001
0000
0000
0010
0000
0100
0000
,
2002
0000
0000
0000
,
0000
0000
0000
0000
,
0000
0000
0000
0000
,
0000
0000
0000
0000
,
0000
0000
0000
0000
,
0000
0000
0000
0000
,
0000
0000
0000
0000
,
0000
0000
0000
0000
,
0000
0000
0000
0000
,
0000
0000
0000
0000
,
0000
0000
0000
0000
,
0000
0000
0000
0000
,
0000
0000
0000
0000
,
0000
0000
0000
0000
,
0000
0000
0000
0000
,
0000
0000
0000
0000
0000
0000
0000
0000
0000
0000
0000
0000
0000
0000
0000
0000
0000
0000
0000
0000
0000
0000
0000
0000
0000
0000
0000
0000
0000
0000
0000
0000
0000
0000
0000
0000
0000
0000
0000
0000
0000
0000
0000
0000
0000
0000
0000
0000
0000
0000
0000
0000
0000
0000
0000
0000
0000
0000
0000
0000
0000
0000
0000
0003
,
3000
0000
1000
0000
0000
0100
0000
0000
0001
0000
0000
0010
0000
0000
0100
0000
,
0010
0000
0100
0000
0000
1000
0000
0000
0100
0000
0000
0010
0000
0000
0001
0000
,
0010
0000
0001
0000
0000
0010
0000
0000
0100
0000
0000
1000
0000
0000
0100
0000
,
0010
0000
0100
0000
0000
0010
0000
0000
0001
0000
1000
0000
0001
0000
1000
0000
,
0001
0000
0010
0000
0000
0100
0000
0000
1000
0000
0000
0100
0000
0000
0001
0000
,
0010
0000
0100
0000
0000
1000
0000
0000
0100
0000
0000
0010
0000
0000
0001
0000
,
0100
0000
0010
0000
0100
0000
0010
0000
0100
0000
0010
0100
0010
0100
0010
0100
,
0010
0100
0010
0000
0000
0000
0000
0000
0000
0000
0000
0000
0000
0000
0000
0000
,
0000
0000
0000
0000
0000
0000
0000
0000
0000
1000
0000
0000
0100
0000
0000
0010
,
0000
1000
0001
1000
0001
0010
1000
0010
,
0100
0001
0010
1000
0010
0100
1000
0010
,
1000
0100
0001
0010
0100
0010
1000
0010
,
0100
0001
0100
0010
1000
0110
0110
0011
,
0011
1001
0100
0010
0100
0001
0010
0001
,
0100
0010
1000
0001
0010
0100
0001
1000
,
0010
0100
1000
0001
0010
0100
0010
1000
,
0010
0000
0100
0000
0010
0000
0001
0000
1000
0000
0010
0000
0100
0000
0001
1000
,
0001
1000
0001
0000
1000
0000
0001
0000
1000
0000
0100
0000
0001
0000
0100
0000
,
0010
1000
0100
0001
0100
0010
0001
0100
,
0001
0010
1000
0100
0010
0100
0001
0100
,
0010
1000
0010
0100
0001
0110
0110
1100
,
1100
1001
0010
0100
0010
1000
0100
1000
,
0010
0100
0001
1000
0100
0010
1000
0001
,
0100
0010
0001
1000
0100
0010
0100
0001
,
0100
1001
0000
0000
0000
0000
0000
0000
;
