#TITLE:TOKYO;
#ARTIST:SMiLE.Dk;
#GENRE:BUBBLEGUM DANCE;
#CREDIT:B. M'Rey;
#MUSIC:TOKYO.ogg;
#BANNER:TOKYO.png;
#BACKGROUND:TOKYO-bg.png;
#CDTITLE:./CDTITLES/DANCEMANIA EX3.png;
#SAMPLESTART:29.951;
#SAMPLELENGTH:12.000;
#OFFSET:-0.082;
#BPMS:0.000=136.000;

//--------------- dance-single - B. M'Rey ----------------
#NOTES:
     dance-single:
     B. M'Rey:
     Beginner:
     1:
     0,0,0,0,0:
0000
0000
0000
0000
,
0000
0000
0000
0000
,
0000
0000
0000
0000
,
0000
0000
0000
0000
,
1000
0000
0010
0000
,
0100
0000
0000
0000
,
0001
0000
0010
0000
,
0001
0000
0000
0000
,
1000
0000
1000
0000
,
0010
0000
0010
0000
,
0001
0001
0001
0000
,
0001
0000
1000
0000
,
0010
0000
0100
0000
,
0010
0000
1000
0000
,
0100
0100
0100
0000
,
0100
0000
0000
0000
,
0001
0000
1000
0000
,
1001
0000
0000
0000
,
0001
0000
0010
0000
,
0001
0000
0100
0000
,
0010
0000
1000
0000
,
0001
0001
0001
0000
,
0100
0000
0010
0000
,
1000
0000
0001
0000
,
0100
0000
1000
0000
,
1000
1000
1000
0000
,
0010
0000
0100
0000
,
0001
0000
1000
0000
,
1001
0000
0000
0000
,
0000
0000
0000
0000
,
0010
0000
0000
0000
,
0000
0000
0000
0000
,
0100
0000
0000
0000
,
0000
0000
0000
0000
,
1000
0000
0001
0000
,
0010
0000
0000
0000
,
0000
0000
0000
0000
,
0100
0000
0000
0000
,
0001
0000
0010
0000
,
0001
0000
0100
0000
,
0010
0000
1000
0000
,
0001
0001
0001
0000
,
0100
0000
0010
0000
,
1000
0000
0001
0000
,
0100
0000
1000
0000
,
1000
1000
1000
0000
,
0010
0000
0100
0000
,
0001
0000
1000
0000
,
0002
0000
0000
0000
,
0000
0000
0000
0000
,
0000
0000
0000
0000
,
0200
0000
0000
0000
,
0000
0303
0000
0000
;

//--------------- dance-single - B. M'Rey ----------------
#NOTES:
     dance-single:
     B. M'Rey:
     Easy:
     2:
     0,0,0,0,0:
0000
0000
0000
0000
,
0000
0000
0000
0000
,
0000
0000
0000
0000
,
0000
0000
0000
0000
,
0001
1000
0100
1000
,
0100
1000
0010
0000
,
0001
0100
0001
0100
,
0010
1000
0010
0000
,
0010
0100
0001
1000
,
0001
0010
0001
0100
,
0010
0100
0010
0100
,
0001
0000
0000
1000
0000
0000
0000
0000
,
0010
1000
0010
0100
,
0010
1000
0001
0010
,
0001
0100
0001
0100
,
0000
1000
0000
0010
,
0100
0010
0100
1000
,
0011
0000
0000
0000
,
0001
1000
0010
1000
,
0001
0100
0001
0100
,
0000
0000
0010
0000
,
0001
1000
0001
1000
,
0010
0100
0010
0100
,
0010
1000
0100
1000
,
0000
0000
0001
0000
,
0001
0010
0100
0010
,
0100
0000
0010
1000
,
0000
1000
0000
0010
,
0001
0000
0010
0000
,
0200
0000
0000
0000
,
0300
1000
0000
0010
,
0000
0200
0000
0000
,
0300
1000
0000
0010
,
0002
0000
0000
0003
,
0100
1000
0100
1000
,
0002
0000
0020
0000
,
0000
0000
0000
0000
,
0033
0000
0000
0000
,
0001
1000
0010
1000
,
0001
0100
0001
0100
,
0000
0000
0010
0000
,
0001
1000
0001
1000
,
0010
0100
0010
0100
,
0010
1000
0100
1000
,
0000
0000
0001
0000
,
0001
0010
0100
0010
,
0100
0000
0010
1000
,
0000
1000
0000
0010
,
0001
0000
0010
0000
,
0001
1000
0001
1000
,
0001
0000
0010
0000
,
0200
0000
0000
0000
,
0000
0300
0000
0000
;

//--------------- dance-single - B. M'Rey ----------------
#NOTES:
     dance-single:
     B. M'Rey:
     Medium:
     4:
     0,0,0,0,0:
0000
0000
0000
0000
,
0000
0000
0000
0000
,
0000
0000
0000
0000
,
0000
0000
0000
0000
,
0100
1000
0000
1000
0100
0000
0001
0010
,
0000
0100
0000
1000
0100
0000
0100
0000
,
0010
0100
0000
0100
0010
0000
0100
1000
,
0000
1000
0000
0100
0010
0000
0010
0000
,
0001
1000
0001
1000
,
0001
0100
0010
0100
,
0010
1000
0010
0000
0100
1000
0100
0000
,
0100
0000
0001
0010
0000
1000
0100
0000
,
0001
1000
0100
1000
,
0010
0100
0010
0100
,
0100
0010
0001
0000
0001
0010
0100
1000
,
0000
0001
0000
1000
0000
0100
0000
1000
,
0001
1000
0010
1000
,
0101
0000
0000
0010
,
0100
1000
0100
0000
0010
0000
0010
0100
,
0000
1000
0000
1000
0010
0000
0010
0100
,
0000
0000
0001
0100
0001
0000
0000
1000
,
0010
0000
0010
0100
0010
0000
0001
0000
,
0001
1000
0001
0000
0100
0000
0100
0010
,
0000
0010
0000
1000
0001
0000
0001
0010
,
0000
0000
0100
0001
0100
0000
0000
1000
,
0001
0100
0010
0001
,
0001
0100
0000
1000
0100
0000
0100
1000
,
0000
0100
0010
0100
0000
1000
0001
1000
,
0010
1000
0010
1000
,
0010
0100
0001
0100
,
0001
0100
0010
1000
,
0001
1000
0001
1000
,
0100
0010
0100
0010
,
0100
1000
0010
1000
,
0010
0100
0010
0100
,
0001
0000
0100
0000
0010
0100
0010
0100
,
0020
0000
0000
0000
,
0031
0000
0000
0010
,
0100
1000
0100
0000
0010
0000
0010
0100
,
0000
1000
0000
1000
0010
0000
0010
0100
,
0000
0000
0001
0100
0001
0000
0000
1000
,
0010
0000
0010
0100
0010
0000
0001
0000
,
0001
1000
0001
0000
0100
0000
0100
0010
,
0000
0010
0000
1000
0001
0000
0001
0010
,
0000
0000
0100
0001
0100
0000
0000
1000
,
0001
0100
0010
0001
,
0001
0100
0000
1000
0100
0000
0100
1000
,
0000
0100
0010
0100
0000
1000
0001
1000
,
0001
0010
0001
0010
,
0001
0100
0010
1000
,
0100
0000
0000
1000
0001
0000
0010
0002
,
0000
0000
0000
0000
,
0000
0003
0000
0000
;

//--------------- dance-single - B. M'Rey ----------------
#NOTES:
     dance-single:
     B. M'Rey:
     Hard:
     7:
     0,0,0,0,0:
0000
0000
0000
0000
,
0000
0000
0000
0000
,
0000
0000
0000
0000
,
0000
0000
0000
0000
,
0001
1000
0100
1000
0100
1000
0010
0100
,
0000
0100
0000
1000
0001
1000
0100
0000
,
0100
0010
0100
0010
0001
0010
0001
1000
,
0000
0010
0000
1000
0010
0100
0010
0000
,
0001
0010
0001
0000
0001
0000
0100
1000
,
0000
1000
0001
0010
0001
0000
0001
0000
,
0100
1000
0001
1000
0001
0010
0100
0010
,
0100
0000
0001
1000
0001
0000
0001
0000
,
0010
0100
0010
0000
0001
0000
0100
1000
,
0000
1000
0001
0100
0001
0000
0010
0000
,
0001
0010
0001
0010
0001
1000
0010
0100
,
0000
0100
0001
0100
0000
1000
0100
1000
,
0100
1000
0001
0010
0001
0010
0100
0010
,
1001
0000
0000
1001
,
0001
1000
0001
1000
0001
0100
0010
0100
,
0000
0100
0000
0010
0001
0100
0010
0100
,
0010
0000
0001
0010
0001
0000
0001
0100
,
0010
0100
0010
0100
1001
0000
1001
0000
,
0001
0100
0010
0100
0010
0100
0001
1000
,
0000
1000
0000
0100
0010
0100
0010
0100
,
0001
0000
0001
1000
0010
0000
0100
0010
,
0100
0010
0001
0010
0101
0000
0101
0000
,
0010
0100
0000
1000
0010
1000
0100
1000
,
0000
0010
0100
0010
0000
0010
0001
1000
,
0001
0000
0001
1000
0000
0100
0010
0100
,
0000
0200
0000
0000
0000
0000
0000
0000
,
0300
0000
0100
0010
0000
1000
0000
1000
,
0001
0010
0100
0000
0100
1000
0100
0000
,
0001
0000
0001
0100
0000
0100
0010
0100
,
0000
0020
0000
0000
0000
0000
0000
1030
,
0010
0000
0001
0100
0001
0000
0001
1000
,
0000
0100
0000
1000
0010
0100
0010
0100
,
0001
1000
0001
1000
0001
0100
0010
0100
0010
0100
0001
0010
0001
0010
0001
0000
,
1001
0000
0000
1001
,
0001
1000
0001
1000
0001
0100
0010
0100
,
0000
0100
0000
0010
0001
0100
0010
0100
,
0010
0000
0001
0010
0001
0000
0001
0100
,
0010
0100
0010
0100
1001
0000
1001
0000
,
0001
0100
0010
0100
0010
0100
0001
1000
,
0000
1000
0000
0100
0010
0100
0010
0100
,
0001
0000
0001
1000
0010
0000
0100
0010
,
0100
0010
0001
0010
0101
0000
0101
0000
,
0010
0100
0000
1000
0010
1000
0100
1000
,
0000
0010
0100
0010
0000
0010
0001
1000
,
0100
1000
0100
0010
,
0100
0010
0001
0010
,
0001
0000
0001
1000
0001
1000
0001
0020
,
0000
0000
0000
0000
,
0000
0030
0000
0000
;
