#TITLE:TOKYO GIRL;
#ARTIST:ACE OF BASE;
#GENRE:EUROPOP;
#CREDIT:B. M'Rey;
#MUSIC:TOKYO GIRL.ogg;
#BANNER:TOKYO GIRL-bn.png;
#BACKGROUND:TOKYO GIRL-bg.png;
#CDTITLE:./CDTITLES/DANCEMANIA.png;
#SAMPLESTART:75.397;
#SAMPLELENGTH:12.000;
#OFFSET:-0.057;
#BPMS:0.000=136.971;

//--------------- dance-single - B. M'Rey ----------------
#NOTES:
     dance-single:
     B. M'Rey:
     Beginner:
     1:
     0.067,0.054,0,0,0:
0000
0000
0000
0000
,
0000
0000
0000
0000
,
0000
0000
0000
0000
,
0000
0000
0000
0000
,
0000
0000
0000
0000
,
0000
0000
0000
0000
,
0000
0000
0000
0000
,
0000
0000
0000
0000
,
0000
0000
0000
1000
,
0000
0000
0000
0001
,
0000
0000
0000
0100
,
0000
0000
0000
0010
,
0000
0000
0000
1000
,
0000
0000
0000
0001
,
0000
0000
0000
0100
,
0000
0000
0000
0010
,
0000
0000
0000
1000
,
0000
0000
0000
0001
,
0000
0000
0000
0010
,
0000
0000
0000
0100
,
0000
0000
0000
0010
,
0000
0000
0000
0001
,
0000
0000
0000
1000
,
0000
0000
0000
0100
,
0000
0000
0000
1000
,
0000
0000
0000
0010
,
0000
0000
0000
0001
,
0000
0000
0000
0100
,
0000
0000
0000
0010
,
0000
0000
0000
1000
,
0000
0000
0000
0001
,
0000
0000
0000
0100
,
0000
0000
0000
0010
,
0000
0000
0000
1000
,
0000
0000
0000
0001
,
0000
0000
0000
0010
,
0000
0000
0000
0001
,
0000
0000
0000
0100
,
0000
0000
0000
0010
,
0000
0000
0000
1000
,
0000
0000
0000
0010
,
0000
0000
0000
0100
,
0000
0000
0000
0001
,
0000
0000
0000
0010
,
0000
0000
0000
0001
,
0000
0000
0000
0100
,
0000
0000
0000
0010
,
0000
0000
0000
1000
,
0000
0000
0000
0100
,
0000
0000
0000
0010
,
0000
0000
0000
1000
,
0000
0000
0000
0001
,
0000
0000
0000
0100
,
0000
0000
0000
0010
,
0000
0000
0000
1000
,
0000
0000
0000
0001
,
0000
0000
0000
0100
,
0000
0000
0000
0010
,
0000
0000
0000
0001
,
0000
0000
0000
1000
;

//--------------- dance-single - B. M'Rey ----------------
#NOTES:
     dance-single:
     B. M'Rey:
     Easy:
     1:
     0.13,0.191,0.009,0.018,0:
0000
0000
0000
0000
,
0000
0000
0000
0000
,
0000
0000
0000
0000
,
0000
0000
0000
0000
,
0000
0000
0000
0000
,
0000
0000
0000
0000
,
0000
0000
0000
0000
,
0000
0000
0000
0000
,
0000
0000
0000
1000
,
0000
0001
0000
0100
,
0000
0010
0000
0001
,
0000
1000
0000
0010
,
0000
0100
0000
0001
,
0000
0010
0000
1000
,
0000
0001
0000
0100
,
0000
0010
0000
0001
,
0000
0100
0000
0010
,
0000
1000
0000
0001
,
0000
0010
0000
0001
,
0000
0100
0000
0010
,
0000
1000
0000
0001
,
0000
0010
0000
0001
,
0000
0100
0000
0010
,
0000
1000
0000
0001
,
0000
0000
0000
1000
,
1000
1000
0000
0010
,
0010
0010
0000
0001
,
0001
0001
0000
0100
,
0100
0100
0000
0010
,
0010
0010
0000
1000
,
1000
1000
0000
0001
,
0001
0001
0000
0100
,
0100
0100
0000
0010
,
0000
0000
0000
0001
,
0000
0000
0000
1000
,
0000
0000
0000
0100
,
0000
0000
0000
0010
,
0000
0001
0000
1000
,
0000
0010
0000
0100
,
0000
0001
0000
0010
,
0000
0001
0000
1000
,
0000
0010
0000
0100
,
0000
0001
0000
0010
,
0000
0001
0000
0100
,
0000
1000
0000
0010
,
0000
0001
0000
0100
,
0000
0010
0000
1000
,
0000
0001
0000
0100
,
0000
0010
0000
1000
,
0000
0001
0000
0100
,
0000
0010
0000
0001
,
0000
0100
0000
0010
,
0000
0000
0000
1000
,
0000
0000
0000
0001
,
0000
0000
0000
0100
,
0000
0000
0000
0010
,
0000
0000
0000
1000
,
0000
0000
0000
0001
,
0000
0000
0000
0100
,
0000
0000
0000
2002
,
0000
0000
0000
3003
;

//--------------- dance-single - B. M'Rey ----------------
#NOTES:
     dance-single:
     B. M'Rey:
     Medium:
     3:
     0.276,0.355,0.018,0.189,0:
0000
0000
0000
0000
,
0000
0000
0000
0000
,
0000
0000
0000
0000
,
0000
0000
0000
0000
,
0000
0000
0000
2000
,
0000
0000
0000
3200
,
0000
0000
0000
0302
,
0000
0000
0000
0003
,
0000
0000
0000
1000
,
0001
0100
0010
1000
,
0000
0001
0100
0010
,
1000
0100
0001
0100
,
0010
1000
0100
0001
,
0100
1000
0010
0100
,
0001
1000
0010
0100
,
0001
1000
0010
0100
,
0001
0010
1000
0100
,
0010
0001
0100
0010
,
0000
1000
0001
0100
,
0010
0001
1000
0010
,
0100
0001
0010
1000
,
0100
0010
0001
0100
,
0010
1000
0100
0001
,
0010
1000
0100
0001
,
0000
0000
0000
1000
,
0100
0001
0000
0100
,
1000
0100
0001
0010
,
0100
1000
0000
0010
,
0100
1000
0000
1000
,
0010
0001
0000
0010
,
1000
0100
0001
0010
,
0100
1000
0000
0100
,
0001
1000
0010
0200
,
1300
0200
0310
0002
,
0013
2000
3100
0002
,
0013
0200
0310
1001
,
0000
0000
0000
1000
,
0001
0100
0010
1000
,
0000
0001
0100
0010
,
1000
0100
0001
0100
,
0010
1000
0100
0001
,
0100
1000
0010
0100
,
0001
1000
0010
0100
,
0001
1000
0010
0100
,
0001
0010
1000
0100
,
0010
0001
0100
0010
,
0000
1000
0001
0100
,
0010
0001
1000
0010
,
0100
0001
0010
1000
,
0100
0010
0001
0100
,
0010
1000
0100
0001
,
0010
1000
0100
0001
,
0000
1000
0001
2000
,
3100
0002
0013
0200
,
1300
0020
0031
0020
,
0130
2000
3001
0020
,
0130
2000
3010
2000
,
3010
0002
0013
0010
,
1000
0100
0001
0010
,
0100
1000
0010
0220
,
0000
0000
0000
0330
;

//--------------- dance-single - B. M'Rey ----------------
#NOTES:
     dance-single:
     B. M'Rey:
     Hard:
     7:
     0.414,0.466,0.117,0.045,0:
0000
0000
0000
0000
,
0000
0000
0000
0000
,
0000
0000
0000
0000
,
0000
0000
0000
0000
,
0000
0000
0000
0020
,
0000
0000
0000
0230
,
0000
0000
0000
0302
,
0000
0000
0000
0103
,
0000
1000
0000
0001
0010
0000
0100
1000
,
0100
0001
0010
0100
1000
0010
0100
0000
,
0001
0000
1000
0001
0100
0010
0001
0000
,
0100
0000
0010
1000
0001
0100
0010
0000
,
0001
0000
1000
0100
0010
0100
0001
0000
,
0010
0100
1000
0010
0001
0100
0010
1000
,
0001
0010
0001
0100
0010
1000
0100
0010
,
0001
0010
1000
0100
0001
0010
0100
0000
,
1100
0000
0110
0000
0101
0000
1000
0100
,
1000
0000
0101
0000
0110
0000
0100
0001
,
0100
0000
0010
1000
0100
0001
0010
0000
,
0100
0000
1000
0001
0100
0010
0001
0000
,
0010
0000
1000
0100
0001
0010
0100
0000
,
1000
0000
0001
0010
0001
0100
0010
0000
,
1000
0000
0001
0010
0100
1000
0100
0000
,
0001
0000
0010
1000
0010
0100
0001
0000
,
0000
0000
0000
0000
1001
0000
0000
1000
,
0001
0000
0010
0100
0001
0000
0010
0000
,
1000
0000
0001
0000
0010
0000
0100
0001
,
0010
1000
0100
0000
0001
0000
0010
0000
,
1000
0000
0010
0000
0100
0000
0001
0010
,
1000
0100
0010
0000
0001
0000
1000
0001
,
0010
0000
0100
0000
0001
0000
0010
1000
,
0100
0000
0001
0000
0010
1000
0100
0000
,
0010
0000
0001
0000
0100
0000
0001
0010
,
1000
0000
1000
0100
0010
0000
0001
0010
,
0100
0000
0010
1000
0100
0000
0001
0010
,
0100
0000
0010
1000
0100
0000
0110
0000
,
0000
1000
0000
0001
0010
0000
0100
1000
,
0100
0001
0010
0100
1000
0010
0100
0000
,
0001
0000
1000
0001
0100
0010
0001
0000
,
0100
0000
0010
1000
0001
0100
0010
0000
,
0001
0000
1000
0100
0010
0100
0001
0000
,
0010
0100
1000
0010
0001
0100
0010
1000
,
0001
0010
0001
0100
0010
1000
0100
0010
,
0001
0010
1000
0100
0001
0010
0100
0000
,
1100
0000
0110
0000
0101
0000
1000
0100
,
1000
0000
0101
0000
0110
0000
0100
0001
,
0100
0000
0010
1000
0100
0001
0010
0000
,
0100
0000
1000
0001
0100
0010
0001
0000
,
0010
0000
1000
0100
0001
0010
0100
0000
,
1000
0000
0001
0010
0001
0100
0010
0000
,
1000
0000
0001
0010
0100
1000
0100
0000
,
0001
0000
0010
1000
0010
0100
0001
0000
,
0001
1000
0001
1000
0001
0000
0010
1000
,
0001
0010
0001
0010
,
1000
0000
0001
0000
0010
0000
0100
0001
,
0010
0000
0100
0010
0001
0000
0010
0000
,
1000
0000
0010
0000
0100
0000
0001
0010
,
1000
0100
0010
0000
0001
0000
1000
0001
,
0010
1000
0100
0000
0001
0000
0010
1000
,
0100
0010
0001
0000
0010
0000
0220
0000
,
0000
0000
0000
0000
,
0330
0000
0000
0000
;
