#VERSION:0.83;
#TITLE:THE TERMINATOR;
#ARTIST:DJ TERMINATOR;
#GENRE:HAPPY HARDCORE;
#CREDIT:B. M'Rey;
#MUSIC:THE TERMINATOR.ogg;
#BANNER:THE TERMINATOR-bn.png;
#BACKGROUND:THE TERMINATOR-bg.png;
#CDTITLE:./CDTITLES/DANCEMANIA HAPPY SPEED.PNG;
#SAMPLESTART:21.233;
#SAMPLELENGTH:15.000;
#OFFSET:-0.003;
#BPMS:0.000=179.963;
#DISPLAYBPM:180.000;

//--------------- dance-single - B. M'Rey ----------------
#NOTEDATA:;
#STEPSTYPE:dance-single;
#DESCRIPTION:B. M'Rey;
#DIFFICULTY:Beginner;
#METER:4;
#RADARVALUES:0,0,0,0,0;
#NOTES:
0000
0000
0000
0000
,
0000
0000
0000
0000
,
0000
0000
0000
0000
,
0000
0000
0000
0000
,
1000
0000
0000
0000
,
0010
0000
0010
0000
,
0100
0000
0000
0000
,
0001
0000
0001
0000
,
0120
0000
0000
0000
,
0000
0000
0000
0000
,
1030
0000
0100
0000
,
1000
0000
0010
0000
,
0100
0000
0001
0000
,
0010
0000
0001
0000
,
1000
0000
0010
0000
,
0101
0000
0000
0000
,
0001
0001
0001
0000
,
0010
0000
0100
0000
,
1000
1000
1000
0000
,
0010
0000
0100
0000
,
0010
0010
0010
0000
,
0001
0000
1000
0000
,
0100
0100
0100
0000
,
0010
0010
0010
0000
,
0001
0001
0001
0000
,
1000
0000
0010
0000
,
0100
0100
0100
0000
,
0010
0000
0001
0000
,
1000
1000
1000
0000
,
0010
0000
0100
0000
,
0001
0001
0001
0000
,
1000
1000
1000
0000
,
0010
0000
0100
0000
,
0001
0000
0010
0000
,
0001
0000
1000
0000
,
0100
0000
1000
0000
,
0010
0000
0100
0000
,
0010
0000
0001
0000
,
1000
0000
0100
0000
,
1000
0000
0000
0000
,
0010
0000
0100
0000
,
0010
0010
0010
0000
,
0001
0000
1000
0000
,
0010
0010
0010
0000
,
0001
0000
1000
0000
,
0100
0100
0100
0000
,
0001
0000
0010
0000
,
0100
0000
0000
0000
,
0001
0001
0001
0000
,
1000
0000
0100
0000
,
0010
0010
0010
0000
,
1000
0000
0001
0000
,
0100
0100
0100
0000
,
0010
0000
1000
0000
,
0001
0001
0001
0000
,
1000
1000
1000
0000
,
0010
0010
0010
0000
,
0100
0000
0010
0000
,
0001
0001
0001
0000
,
1000
0000
0010
0000
,
0100
0100
0100
0000
,
0010
0000
1000
0000
,
0100
0100
0100
0000
,
0001
0001
0001
0000
,
0010
0000
0000
0000
,
0100
0000
0000
0000
,
1000
0000
0000
0000
,
0002
0000
0000
0000
,
2000
0000
0000
0000
,
0000
0000
0000
0000
,
3003
0000
0000
0000
;

//--------------- dance-single - B. M'Rey ----------------
#NOTEDATA:;
#STEPSTYPE:dance-single;
#DESCRIPTION:B. M'Rey;
#DIFFICULTY:Easy;
#METER:8;
#RADARVALUES:0,0,0,0,0;
#NOTES:
0000
0000
0000
0000
,
0000
0000
0000
0000
,
0000
0000
0000
0000
,
0000
0000
0000
0000
,
0010
0100
0010
1000
,
1001
1001
1001
1001
,
0010
0100
0010
0100
,
0101
0101
0101
0101
,
0010
0000
1000
0000
,
0100
0000
1000
0000
,
0010
0100
0010
0100
,
0001
0010
1000
0100
,
0010
0000
0001
0000
,
0010
0100
1000
0100
,
0010
0000
1000
0000
,
0110
0000
0000
0000
,
0010
0100
0010
1000
,
0001
0100
0001
0100
,
0010
0100
0010
1000
,
0001
0100
0010
0100
,
0001
0010
0100
1000
,
0100
0010
0100
0010
,
0001
1000
0100
1000
,
0010
1000
0010
0100
,
0001
1000
0100
1000
,
0010
1000
0100
0010
,
0100
0010
0001
1000
,
0100
0010
0001
1000
,
0100
0010
0001
0100
,
0001
0010
0100
0010
,
0100
1000
0001
0100
,
0001
0100
0001
0010
,
0100
0000
0001
0000
,
0100
0000
1000
0000
,
0010
0000
0001
0000
,
0010
0000
0100
0000
,
1000
0100
0001
0000
,
0100
0010
0001
0000
,
0010
0100
0001
0000
,
0002
0000
0000
0000
0200
0000
0000
0303
,
0010
0100
0001
0100
,
0010
1000
0100
1000
,
0100
1000
0010
0100
,
0010
1000
0001
0100
,
0010
1000
0010
0100
,
0001
0100
0010
1000
,
0100
0010
0100
0010
,
0002
0000
0000
0000
0200
0000
0000
0303
,
1000
0010
0001
1000
,
0001
0010
0001
0100
,
0010
1000
0010
0100
,
0001
0010
0100
1000
,
0001
0100
0010
0100
,
0001
0100
0010
1000
,
0010
1000
0001
0100
,
0001
0100
0010
1000
,
0100
0010
0001
1000
,
0010
1000
0100
1000
,
0010
0100
0001
1000
,
0001
1000
0010
0100
,
0010
0100
0001
0100
,
0010
1000
0100
1000
,
0100
1000
0010
0100
,
0001
0100
0010
1000
,
0001
0000
0100
0000
,
0010
0000
1000
0000
,
0010
0000
0100
0000
,
0001
0000
1000
0000
,
2002
0000
0000
0000
,
0000
0000
0000
0000
,
3003
0000
0000
0000
;

//--------------- dance-single - B. M'Rey ----------------
#NOTEDATA:;
#STEPSTYPE:dance-single;
#DESCRIPTION:B. M'Rey;
#DIFFICULTY:Medium;
#METER:11;
#RADARVALUES:0,0,0,0,0;
#NOTES:
0000
0000
0000
0000
,
0000
0000
0000
0000
,
0000
0000
0000
0000
,
0000
0000
0000
0000
,
0001
1000
0010
0100
,
1010
0101
0110
1010
,
0001
0010
0100
0010
,
1001
0110
0101
1010
,
0010
1000
0010
0000
0100
0000
1000
0000
,
0010
0000
0100
0001
0100
0000
0010
1000
,
0010
0100
1000
0100
,
0010
0100
0010
0000
0001
1000
0010
0000
,
0001
0000
0100
0000
0010
1000
0100
0000
,
0010
0000
0100
0000
1000
0010
0100
0000
,
0001
0010
1000
0000
0100
0000
0010
0001
,
0020
0000
0000
0000
,
0031
1000
0001
1000
0001
0000
0010
0000
,
0100
0010
1000
0000
0100
1000
0100
0000
,
0010
0100
0010
0000
0001
0010
0001
0000
,
0010
1000
0010
0000
0100
0010
0100
0000
,
0001
0010
1000
0010
0100
0000
0010
0000
,
0001
0010
1000
0010
1000
0000
0100
0000
,
0001
0010
0001
0000
0010
0100
0010
0000
,
1000
0100
1000
0000
0010
0100
0010
0000
,
0001
0010
1000
0100
0010
0000
0001
0000
,
0010
1000
0010
0100
0000
0010
0100
0000
,
0001
0010
0001
0010
0000
1000
0010
0000
,
0100
0010
1000
0010
0000
0100
0010
0000
,
0001
0100
0010
1000
0000
0010
0100
0000
,
1000
0010
0001
0010
0000
0100
0010
0000
,
0001
0000
0010
0000
0100
0000
0010
0001
,
1000
0010
0100
0010
,
1001
0010
0100
1000
,
0100
0010
1000
0100
,
0001
0010
0100
0001
,
0010
1000
0100
1000
,
1010
0010
0100
0010
,
0101
0010
0010
1000
,
1010
0100
1000
0100
,
0110
0001
0010
1000
,
0001
1000
0001
0000
0010
0100
0010
0000
,
0001
0000
1000
0000
0010
1000
0010
1000
,
0010
0000
0100
0000
0001
0100
0001
0000
,
0010
0000
0100
0000
0010
0100
0010
0100
,
0010
1000
0100
0000
1000
0100
1000
0000
,
0010
0000
0100
0000
0001
0010
0001
0000
,
0010
0100
0010
0000
1000
0100
1000
0000
,
2002
0000
0000
0000
0000
0000
0000
3003
,
0010
0000
0100
0000
0010
1000
0100
0000
,
0001
0000
0010
0001
0000
0010
1000
0000
,
0010
0000
0100
0000
1000
0100
1000
0000
,
0010
0000
0100
0000
0001
0010
0001
0000
,
0010
0000
0100
0000
0010
0100
0001
0000
,
0010
0000
1000
0100
0000
1000
0100
0000
,
0010
0000
0100
0000
0001
0100
0001
0000
,
0010
0000
1000
0000
0100
1000
0100
0000
,
0010
0000
0001
0010
0000
0010
0001
0000
,
0010
0000
0010
0000
0100
0010
0100
0000
,
1000
0000
0100
0010
0000
0100
0010
0000
,
0001
0010
1000
0010
0000
0100
1000
0000
,
1001
0000
0010
0100
0000
1000
0100
0000
,
0001
0010
1000
0100
0000
0010
1000
0000
,
1001
0000
0010
0100
0000
0010
1000
0000
,
0101
0000
0010
1000
0000
0010
0100
0000
,
0010
0000
1000
0000
,
0001
0000
0100
0000
,
0010
0001
1000
0010
,
0100
0000
0010
0000
,
0002
0000
0000
0000
,
0000
0000
0000
0000
,
0003
0000
0000
0000
;

//--------------- dance-single - B. M'Rey ----------------
#NOTEDATA:;
#STEPSTYPE:dance-single;
#DESCRIPTION:B. M'Rey;
#DIFFICULTY:Hard;
#METER:15;
#RADARVALUES:0,0,0,0,0;
#NOTES:
0000
0000
0000
0000
,
0000
0000
0000
0000
,
0000
0000
0000
0000
,
0000
0000
0000
0000
,
0001
1000
0001
1000
0001
1000
0001
1000
,
0010
0100
1000
0100
,
0010
0100
0010
0100
0010
0100
0010
0100
,
1001
1010
0101
0110
,
0001
0010
0001
0000
1000
0000
0100
0000
,
0010
0000
1000
0010
1000
0000
0010
0100
,
0010
0000
0001
0010
0001
0000
0010
1000
,
0010
0000
0100
0010
0100
0000
0010
1000
,
0010
0100
0010
0001
,
0010
1000
0001
1000
0001
0100
0010
0100
,
0001
0000
1000
0000
0010
1000
0010
0000
,
0001
1000
0010
0000
0100
0000
0001
0000
,
0001
1000
0001
1000
0001
0100
0010
0100
,
0010
0100
0001
0010
0001
0010
0001
1000
,
0100
0010
0100
1000
0100
1000
0001
1000
,
0001
0010
0001
1000
0010
1000
0010
1000
,
0001
0010
0001
0010
0100
0010
0100
1000
,
0100
1000
0001
0100
0001
1000
0001
1000
,
0010
1000
0001
0010
0100
0010
0100
0010
,
0001
1000
0001
1000
0100
1000
0100
0010
,
0100
0010
0001
0010
0001
0100
0001
0100
,
0010
0100
0010
1000
0001
1000
0001
1000
,
0100
0010
0100
0010
0100
1000
0001
0100
,
0010
0100
0010
0100
0001
1000
0001
1000
,
0001
0100
0010
0100
0010
0100
0001
0010
,
0001
0010
0001
1000
0010
1000
0010
1000
,
0001
0010
0001
0010
0001
1000
0100
1000
,
0100
1000
0010
0100
0010
1000
0010
0100
,
1001
0010
0100
0010
,
0001
1000
0010
0100
,
0010
1000
0100
0010
,
0001
1000
0010
0100
,
0001
1000
0010
0100
,
1000
0100
0010
1000
,
0100
0010
1000
0001
,
0010
0000
0100
0000
,
0001
0010
0001
1000
0010
0000
0100
0000
,
0010
1000
0010
0100
0010
0000
0001
0000
,
0010
1000
0010
0100
0010
0000
0001
0000
,
0010
1000
0010
0100
0010
0000
0001
0000
,
0010
0001
0010
0001
0010
0000
1000
0000
,
0100
1000
0100
1000
0100
0000
0010
0000
,
0100
0010
0100
0001
0100
0010
1000
0000
,
0010
0100
0001
1000
0010
0100
0010
0000
,
0001
1000
0001
1000
0010
1000
0001
0100
,
0001
0100
0001
1000
0010
1000
0010
1000
,
0001
0100
0001
0100
0001
1000
0100
1000
,
0100
1000
0010
0100
0010
0100
0010
1000
,
0100
1000
0010
1000
0010
0100
0010
0100
,
0001
0100
0001
1000
0001
1000
0010
1000
,
0010
0100
0001
0100
0001
0100
0010
1000
,
0010
1000
0010
0100
0001
0100
0001
0100
,
0010
1000
0010
1000
0010
0100
0001
0100
,
0001
0100
0010
1000
0001
0010
0001
0010
,
0001
1000
0100
1000
0001
1000
0001
0100
,
0001
0100
0010
0100
0010
1000
0010
1000
,
0001
1000
0001
0010
0001
0010
0100
0010
,
0100
1000
0100
1000
0001
1000
0001
0100
,
0010
0100
0010
0100
0001
1000
0001
1000
,
0001
0010
0100
0010
0100
0010
0001
1000
,
0001
0000
0000
0010
0100
0000
0000
1000
0100
0000
0000
0010
0100
0000
0000
0010
,
0001
0000
0000
0010
0001
0000
0000
0100
0010
0000
0000
1000
0100
0000
0000
0010
,
0001
0000
0000
0001
0010
0000
0000
0010
0100
0000
0000
0100
1000
0000
0000
1000
,
0001
1000
0001
0010
0001
0010
0100
0010
0100
1000
0100
1000
,
0202
0000
0000
0000
,
0000
0000
0000
0000
,
0303
0000
0000
0000
;
