#TITLE:THE MESSAGE;
#ARTIST:NI-NI;
#GENRE:BUBBLEGUM DANCE;
#CREDIT:B. M'Rey;
#MUSIC:The Message.ogg;
#BANNER:THE MESSAGE.png;
#BACKGROUND:THE MESSAGE-bg.png;
#CDTITLE:./CDTITLES/DANCEMANIA X8.PNG;
#SAMPLESTART:30.640;
#SAMPLELENGTH:12.000;
#OFFSET:0.007;
#BPMS:0.000=133.000,132.000=66.500,140.000=133.000;

//--------------- dance-single - B. M'Rey ----------------
#NOTES:
     dance-single:
     B. M'Rey:
     Beginner:
     1:
     0.126,0.129,0.105,0,0:
0000
0000
0000
0000
,
0000
0000
0000
0000
,
0000
0000
0000
0000
,
0000
0000
0000
1001
,
0000
0000
0000
1000
,
0000
0100
0000
1000
,
0000
0001
0000
0010
,
0000
0010
0000
0001
,
0000
0001
0000
1000
,
0000
0000
0000
0100
,
0000
0000
0000
1000
,
0000
0000
0000
0001
,
0000
0010
0000
0001
,
0000
0000
0000
0010
,
0000
0000
0000
0100
,
0000
0000
0000
1000
,
0000
0001
0000
1001
,
0000
0000
0000
0110
,
0000
0000
0000
1001
,
0000
0000
0000
0110
,
0000
0000
0000
1001
,
0000
0000
0000
0110
,
0000
0000
0000
1001
,
0000
0000
0000
0110
,
0000
0000
0000
1000
,
0000
0001
0000
1000
,
0000
0001
0000
0010
,
0000
0100
0000
0010
,
0000
0001
0000
1000
,
0000
0001
0000
0010
,
0000
0001
0000
1000
,
0000
0010
0000
0100
,
0000
0001
0000
1000
,
0001
0000
0000
0000
,
0010
0000
0000
0000
,
1001
0000
0000
0000
,
0010
0000
0000
0000
,
0100
0000
0010
0000
,
1000
0000
0000
0000
,
0001
0000
0001
0000
,
0001
0000
0001
0000
,
1000
0000
1000
0000
,
1000
0000
1000
0000
,
0010
0000
0010
0000
,
0010
0000
0010
0000
,
0100
0000
0100
0000
,
0100
0000
0001
0000
,
1000
0000
1000
0000
,
0100
0000
1000
0000
,
0001
0000
0001
0000
,
0010
0000
0001
0000
,
1000
0000
0001
0000
,
0010
0000
0001
0000
,
1000
0000
0001
0000
,
1000
0000
1001
0000
;

//--------------- dance-single - B. M'Rey ----------------
#NOTES:
     dance-single:
     B. M'Rey:
     Easy:
     2:
     0.208,0.207,0.057,0.057,0,141,6,6,0,0,0:
0000
0000
0000
0000
,
0000
0000
0000
0000
,
0000
0000
0000
0000
,
0000
0000
0000
0000
,
0110
0000
0000
0000
,
1000
0100
1000
0000
,
0100
0100
0001
0001
,
1000
0001
1000
0000
,
0100
0100
0001
0000
,
0010
0000
0001
0000
,
0100
0000
1000
0000
,
0001
0001
1000
0000
,
0010
0001
0100
0000
,
0010
0000
1000
0000
,
0100
0000
0001
0000
,
1000
1000
0001
0000
,
0010
1000
0100
0000
,
0001
0000
0000
0000
,
0001
0100
1000
0100
,
0001
0000
1000
0000
,
0001
0010
0010
0000
,
1001
0000
0000
0000
,
1000
0100
0001
0100
,
1000
0000
0001
0000
,
1000
0010
0010
0000
,
1000
0001
1000
0001
,
0010
0010
0010
0000
,
1000
0001
1000
0001
,
0100
1000
0001
0000
,
0001
1000
0001
1000
,
0100
0100
0100
0000
,
0001
1000
0001
1000
,
0100
0001
1000
0000
,
0001
0001
0001
0000
,
1000
1000
1000
0000
,
0200
0300
0002
0003
,
0020
0030
2000
3000
,
0002
0003
0020
0030
,
1000
0000
0001
0001
,
0001
0010
0001
0000
,
1000
0100
1000
0000
,
0010
1000
0010
0000
,
0100
0001
0100
0000
,
1000
0001
1000
0000
,
0001
0100
0001
0000
,
0010
1000
0010
0000
,
0100
0001
0100
0000
,
1001
0000
0000
0000
,
0001
0100
1000
0100
,
0010
0000
0001
0000
,
1000
0100
0010
0000
,
1001
0000
0000
0000
,
1000
0100
0001
0100
,
0010
0000
1000
0000
,
1000
0001
1001
0000
;

//--------------- dance-single - B. M'Rey ----------------
#NOTES:
     dance-single:
     B. M'Rey:
     Medium:
     4:
     0.31,0.285,0.124,0.019,0,213,13,2,0,0,0:
0000
0000
0000
0000
,
0000
0000
0000
0000
,
0000
0000
0000
0000
,
0000
0000
0000
0000
,
1001
0000
0000
0000
,
1000
1000
0010
0010
,
0001
0000
0100
0000
0010
1000
0010
0000
,
1000
1000
0100
0100
,
0001
1000
0001
0010
1000
0000
0000
0000
,
0100
0100
1000
1000
,
0001
0001
0010
0010
,
1000
0001
0100
0000
0001
1000
0100
0000
,
0001
1000
0010
0001
0100
0000
0000
0000
,
0001
0001
1000
1000
,
0010
0010
0100
0100
,
1000
0001
0100
0000
0001
1000
0100
0000
,
1000
0001
0010
1000
0100
0000
0000
0000
,
0010
0001
0100
1000
,
0001
0000
0100
0000
1000
0010
1000
0000
,
0100
0001
1000
0001
,
0001
0010
0001
0010
0001
0000
0000
0000
,
0010
1000
0100
0001
,
1000
0000
0100
0000
0001
0010
0001
0000
,
0100
1000
0001
1000
,
1000
0010
1000
0010
1000
0000
0000
0000
,
0001
0000
0100
0000
0001
0100
0000
0000
,
0001
0001
1000
0001
,
1000
0000
0100
0000
1000
0100
0000
0000
,
0010
0100
0100
0000
,
1000
0000
1000
0000
0010
1000
0000
0000
,
0001
1000
0001
1000
,
0001
0000
0001
0000
0010
0001
0000
0000
,
0001
0100
1100
0000
,
0001
0010
0001
0010
0001
0000
0000
0000
,
0100
0010
0001
0100
1000
0000
0000
0000
,
0001
1000
0100
0001
,
0020
0000
0000
0030
,
0001
0100
0010
1000
,
0200
0000
0301
0001
,
0100
1000
0010
1001
,
0010
0001
0100
1001
,
0100
0011
0010
1010
,
1000
1001
1001
0000
,
0100
1000
0010
1001
,
0010
0001
0100
1001
,
0100
1100
0001
1001
,
1000
0000
1100
0000
0001
0010
0100
0000
,
1000
0010
1000
0100
,
0001
0000
1000
0000
0001
1000
0100
0000
,
0001
0010
0001
0100
,
0010
0001
0010
0001
0010
0000
0000
0000
,
1000
0001
0010
1000
,
0001
0000
0100
0000
1000
0001
0100
0000
,
1000
0001
0010
1000
,
0001
0010
1000
0100
0001
0000
0000
0000
;

//--------------- dance-single - B. M'Rey ----------------
#NOTES:
     dance-single:
     B. M'Rey:
     Hard:
     7:
     0.488,0.521,0.276,0.067,0.128,323,29,7,13,0,0:
0000
0000
0000
0000
,
0000
0000
0000
0000
,
0000
0000
0000
0000
,
0000
0000
0000
0000
,
0220
0000
0000
0330
,
0001
0001
0100
0010
0100
1000
0000
1000
,
0001
0100
0001
1000
0020
0000
0031
0000
,
1000
1000
0010
0100
0010
0001
0000
0001
,
1000
0010
1000
0001
0100
0000
1001
0000
,
0000
0000
0100
0000
0001
0000
0000
0010
0000
0000
0100
0000
0001
0000
0000
1000
,
0000
0000
0001
0000
0010
0000
0001
1000
0000
0000
0001
0000
0000
0000
0100
0000
,
1000
0000
0010
0000
0100
0000
0001
0100
0000
0000
0001
0000
0000
0000
1000
0000
,
0010
0001
1000
0001
0010
0000
0110
0000
,
0000
0000
0001
0000
1000
0000
0000
0010
0000
0000
0100
0000
0001
0000
0000
0010
,
0000
0000
0001
0000
0100
0000
1000
0100
0000
0000
0010
0000
0000
0000
0001
0000
,
1000
0000
0000
0000
0001
0000
1000
0001
0000
0000
1000
0000
0000
0000
0100
0000
,
0001
0010
0100
1000
0001
0000
0110
0000
,
1000
0100
0000
0000
0001
0000
1000
0000
0001
0000
0010
0000
0000
0000
0010
0000
,
0001
0000
0001
1000
0002
0000
0013
0000
,
0001
1000
0100
0001
0010
0100
0000
0100
,
0010
0010
0100
0100
1001
0000
1100
0000
,
0001
0010
0000
0000
1000
0000
0001
0000
1000
0000
0010
0000
0000
0000
0010
0000
,
0001
0000
0001
1000
0002
0000
1003
0000
,
0001
0010
0100
0010
1000
0001
0000
0001
,
0100
0100
0010
0010
1001
0000
0101
0000
,
0010
0001
0010
0001
0010
0001
0000
0001
,
0100
0001
1000
0100
0001
0000
0011
0000
,
1000
0100
1000
0100
1000
0100
0000
0100
,
0010
1000
0001
1000
0100
0000
0011
0000
,
1000
0001
0100
0001
1000
0001
0000
0001
,
0100
1000
0010
0100
0010
0000
0101
0000
,
1000
0001
1000
0100
1000
0001
0000
0001
,
0010
0100
0001
0010
0100
0000
1001
0000
,
0001
0100
0010
0000
1000
0100
0001
0000
1000
0100
0001
0000
1100
0000
1001
0000
,
0001
1000
0100
0000
0001
0100
0010
0000
1000
0001
0010
0000
0110
0000
1001
0000
,
1000
0000
0000
0100
0000
0000
1000
0000
0010
0000
0000
0100
0000
0000
0010
0000
,
0000
0001
0001
0000
1000
0001
1000
0000
,
0010
0000
0000
0001
0000
0000
0010
0000
0100
0000
0000
0000
1010
0000
0000
0000
,
0101
1001
1000
1001
,
0001
0000
0000
1000
0100
0000
1000
0000
0001
0000
0000
0000
1001
0000
0000
0000
,
0100
1000
0100
0010
0100
0000
0011
0000
,
0001
0000
0000
1000
0001
0000
0100
0000
0001
0000
0000
0000
1010
0000
0000
0000
,
0001
1000
0001
0100
0001
0000
1010
0000
,
0001
0000
0000
1000
0001
0000
0100
0000
1000
0000
0001
0000
1000
0000
0010
0000
,
1000
0001
1000
0010
1000
0000
0101
0000
,
1000
0000
0000
0001
1000
0000
0010
0000
0001
0000
1000
0000
0001
0000
0100
0000
,
0001
1000
0001
0100
0001
0000
1001
0000
,
1000
0010
0000
0000
1000
0000
0010
0000
0001
0000
1000
0000
0000
0000
0010
0000
,
1000
1000
0100
0010
0001
0000
0101
0000
,
1000
0001
0000
0000
0010
0000
1000
0000
1000
0000
0100
0000
0000
0000
1000
0000
,
0001
0010
0001
0100
0120
0000
1030
0000
,
0100
0001
0000
0000
0100
0000
1000
0000
0010
0000
0001
0000
0000
0000
1000
0000
,
0010
0010
1000
0001
0200
0000
1300
0000
,
0010
1000
0000
0000
0001
0000
0010
0000
0100
0000
0010
0000
0000
0000
1000
0000
,
0001
0001
1000
0100
0110
0000
0000
0000
;
