#TITLE:Sweet Tornado;
#ARTIST:Vospi;
#GENRE:WORLD\/ELECTRONICA;
#CREDIT:B. M'Rey;
#MUSIC:Sweet Tornado.ogg;
#BANNER:Sweet Tornado.png;
#BACKGROUND:Sweet Tornado-bg.png;
#CDTITLE:./CDTITLES/DDR HOME VERSION.PNG;
#SAMPLESTART:17.946;
#SAMPLELENGTH:12.000;
#OFFSET:-0.056;
#BPMS:0.000=109.000;

//--------------- dance-single - B. M'Rey ----------------
#NOTES:
     dance-single:
     B. M'Rey:
     Beginner:
     1:
     0,0,0,0,0:
0000
0000
0000
0000
,
0000
0000
0000
0000
,
0000
0000
0000
0000
,
0000
0000
0000
0000
,
0000
1000
0000
0000
,
0000
0010
0000
0000
,
0000
0100
0000
0000
,
0000
0001
0000
0000
,
0000
1000
0000
0001
,
0000
0100
0000
0010
,
0000
1000
0000
0100
,
0000
1000
0000
0010
,
0000
0100
0000
0001
,
0000
0010
0000
0001
,
0000
0100
0000
0010
,
0000
1000
0000
0100
,
0000
0001
0000
1000
,
0000
0010
0000
0100
,
0000
1000
0000
0000
,
0000
0001
0000
0000
,
0000
0100
0000
0000
,
0000
0010
0000
0000
,
0000
1000
0000
1000
,
0000
0001
0000
0001
,
0000
0100
0000
0100
,
0000
0010
0000
0010
,
0000
2000
0000
3000
,
0000
0002
0000
0003
,
0000
0010
0000
0000
,
0000
0000
0000
0000
,
0000
0100
0000
1000
,
0000
0001
0000
1001
,
0000
0010
0000
0100
,
0000
0010
0000
0101
,
0000
0010
0000
1000
,
0000
0100
0000
1010
,
0000
0100
0000
0010
,
0000
0001
0000
0101
,
0000
1000
0000
0010
,
0000
0100
0000
0010
,
0000
1000
0000
0001
,
0000
0100
0000
0010
,
0000
1000
0000
1000
,
0000
0001
0000
0001
,
0000
0100
0000
0010
,
0000
1000
0000
0001
,
0000
2000
0000
0000
,
0000
0000
3200
0000
0000
0000
0000
0300
;

//--------------- dance-single - B. M'Rey ----------------
#NOTES:
     dance-single:
     B. M'Rey:
     Easy:
     3:
     0,0,0,0,0:
0000
0000
0000
0000
,
0000
0000
0000
0000
,
0000
0000
0000
0000
,
0000
0000
0000
0000
,
0000
1000
0000
0001
,
0000
0100
0000
0010
,
0000
1000
0000
0001
,
0000
0010
0000
0001
,
0000
0100
0100
0010
,
0010
1000
1000
0001
,
0000
0010
0010
0001
,
0001
0100
0100
1000
,
0000
0010
0100
0001
,
0000
1000
0010
0100
,
0000
0010
0100
0001
,
0000
1000
0001
1000
,
0000
0010
0010
0100
,
0100
0001
0001
1000
,
1000
0010
0000
0100
,
0000
0001
0000
0010
,
0000
1000
0000
0001
,
0000
0010
0000
0001
,
0000
1000
1000
0001
,
0001
1000
1000
0001
,
0001
0100
0100
0010
,
0010
0100
0100
0010
,
0010
0001
0000
1000
,
0000
0010
0000
0100
,
0000
1000
0000
0000
,
0000
0010
0000
0001
,
0000
0100
0001
1000
,
0010
0100
0010
1001
,
0010
0100
0001
0010
,
1000
0100
1000
0110
,
0001
0010
0001
0100
,
0010
1000
0010
1010
,
0100
0001
0010
0001
,
1000
0010
0100
0110
,
0001
1000
0001
1000
,
0001
1000
0010
1000
,
0010
1000
0100
1000
,
0100
1000
0010
0001
,
0010
0100
0001
0100
,
0001
0100
0010
0100
,
0010
0100
1000
0100
,
1000
0100
1000
0010
,
0100
0001
0000
0010
,
0000
0000
0001
0000
0000
0000
0010
1000
;

//--------------- dance-single - B. M'Rey ----------------
#NOTES:
     dance-single:
     B. M'Rey:
     Medium:
     4:
     0,0,0,0,0:
0000
0000
0000
0000
,
0000
0000
0000
0000
,
0000
0000
0000
0000
,
0000
0000
0000
0000
,
0000
0100
1000
0001
,
1000
0010
1000
0010
,
0100
0010
1000
0001
,
0010
0001
0100
0001
,
0100
0000
0010
0001
1000
0000
0001
1000
,
0010
0000
0100
0010
1000
0000
0100
0001
,
0010
0100
1000
0010
,
1000
0001
1000
0010
,
0100
0000
0010
0001
0100
0000
0010
0000
,
1000
0000
0001
0100
1000
0000
0001
0000
,
1000
0000
0010
1000
0100
0000
0001
0000
,
0100
0000
0010
0001
1000
0000
0100
0000
,
1000
0000
0100
0010
1000
0000
0010
0000
,
0100
0000
0001
1000
0100
0000
0001
0000
,
0010
0001
1000
0010
,
1000
0001
0010
0100
,
1000
0010
1000
0100
,
0010
0001
0100
0010
,
0100
0000
0010
1000
0100
0000
0001
1000
,
0010
0000
0100
1000
0010
0000
0100
0001
,
1000
0000
0010
0001
0100
0000
0010
0001
,
1000
0000
0100
0001
0010
0000
0001
1000
,
0010
0100
1010
0010
,
0100
0010
1100
0001
,
0100
0011
0000
0000
,
0100
2020
0000
0000
,
3030
0001
0100
0000
1000
0010
0001
0000
,
0010
1000
0100
0000
0110
0000
0011
0000
,
1000
0000
0100
0010
1000
0000
0001
0100
,
1000
0000
0001
1000
0010
0000
0110
0000
,
0011
0000
0100
1000
0010
0000
0001
0100
,
1000
0000
0100
0001
0010
0000
1001
0000
,
1001
0000
0001
0100
1000
0000
0001
1000
,
0010
0000
0100
0001
1000
0000
0011
0000
,
0110
0000
0100
0000
0010
0000
0100
1000
,
0010
0000
0001
0000
0100
0000
0001
0010
,
1000
0000
0010
0000
1000
0000
0001
1000
,
0010
0000
0100
0000
0010
0000
0001
0010
,
1000
0000
0100
0000
0010
0000
0100
0001
,
1000
0000
0010
0000
0100
0000
0001
1000
,
0100
0000
0010
0000
1000
0000
0100
0001
,
0010
0000
0001
0000
1000
0000
0100
1000
,
0010
0001
1000
0001
,
1000
0000
0001
0000
0100
0000
0010
0100
;

//--------------- dance-single - B. M'Rey ----------------
#NOTES:
     dance-single:
     B. M'Rey:
     Hard:
     7:
     0,0,0,0,0:
0000
0000
0000
0000
,
0000
0000
0000
0000
,
0000
0000
0000
0000
,
0000
0000
0000
0000
,
0000
0100
0010
0001
,
0100
0010
1000
0100
,
1000
0001
1000
0001
,
0100
0001
1000
0010
,
0100
0000
0001
1000
0001
0010
0100
1000
,
0001
1000
0001
1000
0100
0010
1100
0000
,
0110
0000
0010
0100
0010
1000
0100
1000
,
0001
0010
0001
0100
0001
0100
0110
0000
,
1010
0000
0001
1000
0001
1000
0010
0100
,
0001
0100
0010
1000
0100
0010
0001
0100
,
0010
1000
0010
0100
0001
0100
0010
0100
,
0010
1000
0100
0010
0001
0010
0100
0010
,
0101
0000
0001
0010
0100
1000
0100
1000
,
0001
0010
0100
0010
0100
0010
0001
0100
,
0010
0001
0100
0010
,
0100
0010
0100
0001
,
1000
0010
1000
0100
,
1000
0001
0100
0010
,
0100
0000
0010
1000
0100
0000
0001
0010
,
1000
0000
0001
1000
0010
0000
0100
0001
,
0010
0000
0100
1000
0010
0000
0001
0010
,
0100
0000
0001
1000
0100
0000
0001
1000
,
0010
0000
0000
0000
0010
0000
0001
0000
0010
0001
0010
0001
0010
0000
1000
0000
,
0001
0000
0010
0000
0001
0000
1000
0000
0001
1000
0001
1000
0001
0000
0100
0000
,
0001
0100
0001
0000
0100
0000
0010
0000
,
0100
0220
0000
0000
,
0330
0000
1000
0010
0001
0000
0100
0000
0001
0000
1000
0100
0010
0000
1000
0000
,
0100
0000
1000
0001
0100
0000
0010
0000
0100
0000
1000
0010
0001
0000
0100
0000
,
0001
0000
0010
1000
0001
0000
0100
0000
0010
0000
0100
0001
0010
0000
1000
0000
,
0001
0000
0010
1000
0100
0000
0010
0000
0100
0000
0010
1000
0001
0000
0100
0000
,
0001
0000
0100
1000
0010
0000
0100
0000
0001
0000
1000
0100
0010
0000
1000
0000
,
0001
0000
0010
0001
0100
0000
1000
0000
0001
0000
0100
1000
0010
0000
1000
0000
,
0001
0000
0100
1000
0001
0000
0010
0000
0001
0000
0100
0001
0010
0000
1000
0000
,
0010
0000
0100
1000
0010
0000
1000
0000
0001
0000
0010
1000
0001
0000
0010
0000
,
0001
1000
0010
0100
0010
0100
0001
1000
,
0100
1000
0100
1000
0001
0100
0001
0010
,
0100
1000
0100
0010
0001
0100
0001
0010
,
0001
0010
0100
1000
0001
1000
0100
1000
,
0001
0010
0100
1000
0001
1000
0100
0010
,
0100
0010
0001
1000
0100
0010
0001
1000
,
0100
1000
0010
1000
0010
0100
0010
1000
,
0100
0010
0100
0010
0001
1000
0100
0010
,
0001
0010
0001
0000
1000
0000
0010
0000
,
0100
0000
0001
0000
1000
0000
1001
1001
;
