#VERSION:0.83;
#TITLE:Shake it down;
#ARTIST:good-cool;
#GENRE:J-POP;
#CREDIT:B. M'Rey;
#MUSIC:Shake it down.ogg;
#BANNER:Shake It Down-bn.png;
#BACKGROUND:Shake It Down-bg.png;
#CDTITLE:./CDTITLES/beatmania III.png;
#SAMPLESTART:56.125;
#SAMPLELENGTH:15;
#OFFSET:-0.445;
#BPMS:0=125;

//--------------- dance-single - B. M'Rey ----------------
#NOTEDATA:;
#STEPSTYPE:dance-single;
#DESCRIPTION:B. M'Rey;
#DIFFICULTY:Beginner;
#METER:1;
#RADARVALUES:0,0,0,0,0;
#NOTES:
0000
0000
0000
0000
,
1001
0000
0000
0000
,
0010
0000
0000
0000
,
0001
0000
0000
0000
,
0100
0000
0000
0000
,
0110
0000
0000
0000
,
0001
0000
0000
0000
,
1000
0000
0000
0000
,
0010
0000
0000
0000
,
1001
0000
0000
0000
,
0100
0000
0000
0000
,
0001
0000
0000
0000
,
1010
0000
0000
0000
,
0100
0000
1000
0000
,
0001
0000
0010
0000
,
0001
0000
0100
0000
,
0010
0000
0000
0000
,
1000
0000
0001
0000
,
0010
0000
0001
0000
,
0100
0000
0010
0000
,
1000
0000
0000
0000
,
0001
0000
0010
0000
,
0001
0000
0100
0000
,
0010
0000
1000
0000
,
0100
0000
0000
0000
,
0001
0000
0010
0000
,
0001
0000
0100
0000
,
0010
0000
1000
0000
,
0010
0000
0000
0000
,
1001
0000
0000
0000
,
0101
0000
0000
0000
,
0010
0000
1000
0000
,
0100
0000
0000
0000
,
1010
0000
0000
0000
,
0110
0000
0000
0000
,
1000
0000
0001
0000
,
0010
0000
0100
0000
,
0101
0000
0000
0000
,
0010
0000
0000
0000
,
1000
0000
0000
0000
,
0100
0000
0000
0000
,
1000
0000
0010
0000
,
0100
0000
0001
0000
,
0010
0000
0001
0000
,
0100
0000
0010
0000
,
1000
0000
0000
0000
;

//--------------- dance-single - B. M'Rey ----------------
#NOTEDATA:;
#STEPSTYPE:dance-single;
#DESCRIPTION:B. M'Rey;
#DIFFICULTY:Easy;
#METER:4;
#RADARVALUES:0,0,0,0,0;
#NOTES:
0000
0000
0000
0000
,
1000
0001
0000
0000
,
0010
0100
0000
0000
,
0001
0000
1000
0000
,
0010
0000
0100
0000
,
0001
1000
0000
0000
,
0010
0100
0000
0000
,
1000
0000
0010
0000
,
0100
0000
0001
0000
,
0110
0000
1000
0000
,
0001
0000
0010
0001
,
0010
0000
1000
0000
,
0010
0100
0010
0000
,
0001
0000
1000
0010
,
0000
0100
0010
1000
,
0001
0000
0010
0000
,
0001
0000
0100
0000
,
0010
1000
0100
0000
,
0001
0010
0001
0000
,
0010
0000
0100
0000
,
0010
0000
1000
0000
,
0100
0000
1000
0000
,
0010
0000
0100
0001
,
0010
0000
0001
0000
,
0100
0010
1000
0000
,
0010
0000
0100
0000
,
0001
0000
0010
0000
,
1000
0100
1000
0000
,
0110
0000
0000
0000
,
1001
1001
0010
0000
,
0110
0110
0100
0000
,
0010
1000
0100
1000
,
0010
0000
0001
0000
,
0101
0101
0001
0000
,
1010
1010
0010
0000
,
0010
0100
1000
0000
,
0010
0100
0001
0000
,
1010
0000
0100
0000
,
1000
0000
0010
0000
,
0100
0000
0001
0000
,
0010
0000
0001
0000
,
1000
0010
0100
0000
,
0001
0010
0001
0000
,
0100
0010
1000
0000
,
0010
0100
0001
0000
,
0010
0000
0000
0000
;

//--------------- dance-single - B. M'Rey ----------------
#NOTEDATA:;
#STEPSTYPE:dance-single;
#DESCRIPTION:B. M'Rey;
#DIFFICULTY:Medium;
#METER:6;
#RADARVALUES:0,0,0,0,0;
#NOTES:
0000
0000
0000
0000
,
1000
0001
1000
0000
0010
0000
0001
0000
,
0100
0001
0010
0000
1000
0000
0100
0000
,
0001
1000
0010
0000
0001
0000
0010
0000
,
0100
0001
1000
0000
0100
0000
1000
0000
,
1001
0000
0010
0000
0100
0001
1000
0000
,
0010
0000
0001
0000
0100
1000
0001
0000
,
0010
1000
0010
1000
,
0100
0001
0100
0001
,
0110
0000
1000
0000
,
0010
0100
0010
0010
,
0001
0000
1000
0000
,
0010
0100
0100
0000
,
0001
0000
0010
0000
0100
0010
1000
0000
,
0001
0000
1000
0000
0001
0010
1000
0000
,
0100
0010
0100
0010
,
0100
0000
1000
0000
0010
0100
1000
0000
,
0100
0000
0010
0000
0001
1000
0010
0000
,
0100
0000
0010
0000
0001
0010
1000
0000
,
0100
0010
0001
0010
,
0100
0010
1000
0000
0001
0100
0010
0000
,
0001
0100
0001
1000
,
0100
0010
0001
1000
,
0010
0000
1000
0000
0010
0100
1000
0000
,
0100
0000
0010
0000
0001
1000
0010
0000
,
0100
1000
0001
1000
,
0100
1000
0010
0100
,
0001
0100
0001
0010
,
0101
0110
0001
1000
,
0001
1000
0001
0000
0010
0000
0100
0000
,
0010
1000
0010
0000
0100
0000
0001
0000
,
0010
0100
0010
0100
,
1000
0001
1001
0010
,
0100
0010
0100
0000
0001
0000
1000
0000
,
0010
1000
0010
0000
0100
0000
0001
0000
,
0010
0001
0100
0010
,
1000
0100
1000
0001
,
0010
0001
0100
0000
0010
0000
1000
0000
,
0100
0010
0100
0000
0001
0000
0010
0000
,
0001
1000
0100
0000
0010
1000
0100
0000
,
0001
0100
0010
0000
1000
0100
1000
0000
,
0001
0010
0001
0100
,
0010
1000
0100
1000
,
0001
0100
0010
1000
,
0100
0001
0010
0100
,
0010
0000
0000
0000
;

//--------------- dance-single - B. M'Rey ----------------
#NOTEDATA:;
#STEPSTYPE:dance-single;
#DESCRIPTION:B. M'Rey;
#DIFFICULTY:Hard;
#METER:11;
#RADARVALUES:0,0,0,0,0;
#NOTES:
0000
0000
0000
0000
,
0010
0100
0010
0000
0010
1000
0100
0010
,
0001
1000
0001
0010
0000
1000
0001
0100
,
0010
1000
1010
0000
0101
0000
0010
0100
,
0011
0000
0101
0000
0010
0100
0010
0100
,
0001
1000
0100
0000
0100
0010
0001
0010
,
0100
0010
0100
1000
0000
1000
0010
1000
,
0010
0100
0011
0000
0110
0000
0100
1000
,
0011
0000
1001
0000
0001
0010
0100
0010
,
0010
0100
0010
0100
,
0010
1000
0001
0100
,
0010
0100
0001
1000
,
0010
1000
0100
0000
,
0010
0100
0010
1000
0100
0010
0001
0000
,
0010
1000
0100
1000
0100
0010
0100
0000
,
0010
0000
0100
0000
0000
0001
0000
0000
0100
0000
0000
1000
0000
0000
0100
0000
,
0001
0010
0001
0000
0001
0110
0000
1001
,
0000
1000
0100
0010
0001
0100
0010
0000
,
0001
0100
0010
1000
0001
1000
0100
0000
,
0100
0000
0010
0000
0000
0001
0000
0000
0010
0000
0000
1000
0000
0000
0010
0000
,
0100
1000
0001
0000
0001
1000
0001
1000
,
0100
0000
0010
0100
0000
1000
0100
0000
,
0001
0100
0000
0010
0001
0010
0100
0010
,
0001
0000
0010
0100
0000
1000
0010
0000
,
0001
0100
0001
1000
0001
0100
0010
1000
,
0100
0000
0100
0010
0000
0100
0010
0000
,
0010
0100
0000
1000
0100
0000
0001
0100
,
0001
1000
0100
0010
0100
0010
0100
1000
,
0010
1000
0000
0010
1000
0000
0010
1000
0000
0010
1000
0000
0010
0000
1000
0000
,
0101
0101
0101
0000
0010
1000
0001
0100
,
0110
0110
0110
0000
0001
0010
0100
1000
,
0010
1000
0010
1000
0100
0010
0100
1000
,
0010
0000
0000
0100
0000
0000
0010
0000
0001
1000
0001
1000
0000
0000
0100
0000
,
1001
1001
1001
0000
0010
1000
0100
0010
,
0101
0101
0101
0000
0001
0010
0001
1000
,
0100
0010
0100
0010
0001
1000
0001
0100
,
0010
0000
0000
1000
0000
0000
0010
0000
0100
0000
0010
0000
0100
0000
1000
0000
,
0010
0100
0001
0000
0100
0010
0000
1010
,
0000
1000
0100
0000
0100
1000
0000
1010
,
0000
1000
0001
0000
0001
0010
0000
1100
,
0000
1000
0010
0000
0001
1000
0000
0110
,
0000
1000
0001
1000
0001
0100
0010
0100
,
0001
0010
0001
1000
0001
0010
0100
1000
,
0010
0100
0001
0100
0001
0010
0001
1000
,
0100
1000
0100
0010
0100
0010
0001
0100
,
0001
0000
0000
0000
;
