#TITLE:STARS;
#SUBTITLE:(MOTO BLANCO RADIO EDIT);
#ARTIST:ERIKA JAYNE;
#GENRE:HOUSE;
#CREDIT:B. M'Rey;
#MUSIC:STARS (MOTO BLANCO RADIO EDIT).ogg;
#BANNER:STARS (MOTO BLANCO RADIO EDIT)-bn.png;
#BACKGROUND:STARS (MOTO BLANCO RADIO EDIT)-bg.png;
#CDTITLE:./CDTITLES/LOVE HOUSE PLATINUM.png;
#SAMPLESTART:46.070;
#SAMPLELENGTH:12.000;
#OFFSET:-0.110;
#BPMS:0.000=128.005;

//--------------- dance-single - B. M'Rey ----------------
#NOTES:
     dance-single:
     B. M'Rey:
     Beginner:
     1:
     0.069015,0.101989,0.008946,0,0,54,53,1,0,0,0,0.069015,0.101989,0.008946,0,0,54,53,1,0,0,0:
0000
0000
0000
0000
,
0000
0000
0000
0000
,
0000
0000
0000
0000
,
0000
0000
0000
0000
,
0000
0000
0000
0000
,
0100
0000
0000
0000
,
0010
0000
0000
0000
,
1000
0000
0000
0000
,
1000
0000
0000
0000
,
0010
0000
0000
0000
,
0100
0000
0000
0000
,
1000
0000
0000
0000
,
0001
0000
0000
0000
,
0100
0000
0000
0000
,
0010
0000
0000
0000
,
0001
0000
0000
0000
,
1000
0000
0000
0000
,
0100
0000
0000
0000
,
0010
0000
0000
0000
,
0010
0000
0000
0000
,
0100
0000
0000
0000
,
1000
0000
0000
0000
,
0100
0000
0000
0000
,
1000
0000
0000
0000
,
1000
0000
0000
0000
,
0010
0000
0000
0000
,
0100
0000
0000
0000
,
0010
0000
0000
0000
,
0010
0000
0000
0000
,
0001
0000
0000
0000
,
0010
0000
0000
0000
,
0100
0000
0000
0000
,
0100
0000
0000
0000
,
1000
0000
0000
0000
,
0100
0000
0000
0000
,
0010
0000
0000
0000
,
1000
0000
0000
0000
,
0010
0000
0000
0000
,
0001
0000
0000
0000
,
0100
0000
0000
0000
,
1000
0000
0000
0000
,
1000
0000
0000
0000
,
0100
0000
0000
0000
,
0010
0000
0000
0000
,
0010
0000
0000
0000
,
0100
0000
0000
0000
,
0010
0000
0000
0000
,
0100
0000
0000
0000
,
0001
0000
0000
0000
,
1000
0000
0000
0000
,
0010
0000
0000
0000
,
0100
0000
0000
0000
,
1000
0000
0000
0000
,
0100
0000
0000
0000
,
0010
0000
0000
0000
,
0001
0000
0000
0000
,
1000
0000
0000
0000
,
1001
0000
0000
0000
;

//--------------- dance-single - B. M'Rey ----------------
#NOTES:
     dance-single:
     B. M'Rey:
     Easy:
     2:
     0.167425,0.207556,0.008946,0.053678,0,131,130,1,6,0,0,0.167425,0.207556,0.008946,0.053678,0,131,130,1,6,0,0:
0000
0000
0000
0000
,
0000
0000
0000
0000
,
0000
0000
0000
0000
,
0000
0000
0000
0000
,
0000
0000
0000
0000
,
1000
0000
0001
0000
,
0100
0000
0001
0000
,
0010
0000
0001
0000
,
1000
0000
0100
0000
,
0010
0001
0010
0000
,
0100
0000
1000
0000
,
0002
0000
0000
0000
,
0003
0000
0000
0000
,
0010
1000
0100
0000
,
0010
0000
0001
0000
,
2000
0000
0000
0000
,
3000
0000
0000
0000
,
1000
0000
0100
0000
,
0001
0000
0010
0000
,
0100
0000
1000
0000
,
0001
0000
0010
0000
,
1000
0000
0100
0000
,
1000
0000
0010
0000
,
0001
0000
1000
0000
,
0100
0000
0010
0000
,
0001
0001
0001
0000
,
0100
0100
0100
0000
,
0001
0001
0001
0000
,
0010
0010
0010
0000
,
1000
1000
1000
0000
,
0100
0100
0100
0000
,
0010
0010
0010
0000
,
0001
1000
0001
1000
,
2000
0000
0001
0000
,
0010
0000
0001
0000
,
0010
0000
0001
0000
,
0010
0000
0001
3000
,
0001
0010
0001
0000
,
1000
0010
1000
0000
,
0001
0010
0100
2000
,
0000
0000
3001
0001
,
0100
0100
0100
0000
,
0010
0010
0010
0000
,
0001
0001
0001
0000
,
1000
1000
1000
0000
,
0100
0100
0100
0000
,
0010
0010
0010
0000
,
0001
0001
0001
0000
,
0010
0010
0010
0000
,
0100
0100
0100
0000
,
1000
0001
1000
0000
,
0001
0010
0001
0000
,
0010
0100
0010
0000
,
0100
1000
0100
0000
,
0100
0010
0100
0000
,
0010
0001
0010
0000
,
0001
1000
0001
0000
,
2002
0000
0000
0000
,
3003
0000
0000
0000
;

//--------------- dance-single - B. M'Rey ----------------
#NOTES:
     dance-single:
     B. M'Rey:
     Medium:
     3:
     0.241552,0.28539,0.026839,0.071571,0,189,186,3,8,0,0,0.241552,0.28539,0.026839,0.071571,0,189,186,3,8,0,0:
0000
0000
0000
0000
,
0000
0000
0000
0000
,
0000
0000
0000
0000
,
0000
0000
0000
0000
,
0000
0000
0000
0000
,
1000
0001
0100
0010
,
0001
0100
1000
0010
,
0100
0001
0010
1000
,
0100
1000
0100
0010
,
0101
0001
0010
1000
,
0100
0001
0010
0100
,
0002
0000
0000
0000
,
0003
0000
0001
0000
,
1000
0010
0001
0100
,
0010
1000
0100
1000
,
2000
0000
0000
0000
,
3000
0000
1000
0001
,
0010
0000
0000
1000
,
0001
0100
0010
0001
,
1000
0100
0000
0000
,
0100
0000
0010
0001
,
1000
0100
0001
1000
,
0010
0001
0010
0100
,
0001
1000
0100
0001
,
0020
0000
0001
0001
,
0031
1000
0100
1000
,
0010
0001
0100
0010
,
1000
0001
0010
0001
,
0100
0010
1000
0100
,
0010
0100
1000
0001
,
0010
1000
0100
1000
,
0001
1000
0100
0001
,
0010
0100
0001
0010
,
0200
0000
0010
0010
,
0010
0000
1000
1000
,
1000
0000
0001
0001
,
0001
0000
0000
0000
,
0301
0010
1000
0100
,
0001
0010
1000
0010
,
0100
0001
1000
2002
,
0000
0000
0000
3003
0001
1000
0001
1000
,
0001
0010
0100
1000
,
0100
0001
0010
0100
,
0010
1000
0010
0100
,
0001
0100
1000
0010
,
1000
0001
0010
0100
,
0010
1000
0010
0100
,
0001
0100
1000
0010
,
0001
0010
0100
1000
,
1000
0001
0100
0010
,
1000
0100
0001
0100
,
0010
1000
0100
0010
,
1000
0010
0001
0100
,
1000
0010
0001
1000
,
0100
0010
1000
0010
,
0100
1000
0010
0100
,
0010
1000
0010
0100
,
2002
0000
0000
0000
,
3003
0000
0000
0000
;

//--------------- dance-single - B. M'Rey ----------------
#NOTES:
     dance-single:
     B. M'Rey:
     Hard:
     6:
     0.36808,0.440819,0,0.053678,0,288,288,0,6,0,0,0.36808,0.440819,0,0.053678,0,288,288,0,6,0,0:
0000
0000
0000
0000
,
0000
0000
0000
0000
,
0000
0000
0000
0000
,
0000
0000
0000
0000
,
0000
0000
0000
0000
,
0100
0000
0001
0000
1000
0001
1000
0001
,
1000
0000
0010
0000
1000
0001
1000
0001
,
1000
0000
0100
0000
1000
0010
1000
0010
,
1000
0010
0001
1000
0100
1000
0001
0010
,
1000
0100
0010
0001
0010
0000
0000
0001
,
0010
0000
1000
0001
0000
2000
0000
0000
,
0000
0000
0100
0000
0100
0000
0100
3000
,
0001
0001
0001
0001
,
1000
0100
0010
0100
1000
0000
0000
0001
,
0010
0100
0000
0010
0000
0200
0000
0000
,
0000
0000
0000
0000
1000
0000
0000
0000
1000
0000
0000
0000
1000
0300
0000
0000
,
0001
0000
0001
0000
0001
0010
0001
0100
,
0010
1000
0000
0000
0010
0000
0100
0001
,
0010
1000
0001
1000
0001
1000
0100
0100
,
1000
0010
0000
0200
0000
0000
1000
0000
,
1000
0000
0000
0000
0000
0000
0001
0000
0000
0000
0000
0000
0001
0300
0000
1000
0000
0000
0001
0000
0000
0010
0000
0000
,
0100
1000
0000
0100
0000
0010
0000
0100
,
0001
1000
0100
0010
0001
1000
0001
0100
,
0000
0100
0000
1000
0000
0001
0000
1000
,
0001
0100
0001
1000
0010
0100
1000
0001
,
0010
0000
1000
0000
0001
0100
1000
0000
,
0010
0100
1000
0000
0010
0001
1000
0000
,
0001
0010
0100
1000
0001
0100
0001
1000
,
0010
1000
0001
0000
1000
0001
0100
0010
,
0001
0000
0010
0000
0001
0010
0100
0010
,
0100
1000
0100
0000
1000
0000
0001
0000
,
1000
0000
0001
0010
0100
1000
0001
0000
,
0010
0100
1000
0000
0001
0010
1000
0100
,
2000
0001
0001
0001
,
0010
0010
0010
0010
,
0010
0001
0001
0001
,
0100
0000
0000
0000
0000
0000
0100
0000
0000
0000
0000
0000
0100
0000
0000
0000
0000
0000
0100
3000
0000
0000
0000
0000
,
1000
0010
0001
0100
1000
0000
0000
0000
,
0000
0000
0000
0000
,
0001
0010
0100
1000
,
0002
0000
0000
0000
0000
0000
0000
0000
0000
0000
0000
0000
0000
0000
0000
0000
0000
0000
0000
0000
0000
0000
0000
0000
0000
0000
0000
0000
0000
0000
0000
0000
0000
0000
0000
0000
0000
0000
0000
0000
0000
0000
0000
0000
0000
0000
0000
0000
0000
0000
0000
0000
0000
0000
0000
0000
0000
0000
0000
0000
0000
0000
0000
0000
0000
0000
0000
0000
0000
0000
0000
0000
0000
0000
0000
0000
0000
0000
0000
0000
0000
0000
0000
0003
0000
0000
0000
0000
0000
0000
0000
0000
0000
0000
0000
0000
1000
0000
0000
0000
0000
0000
0000
0000
0000
0000
0000
0000
0000
0000
0000
0000
0000
0000
0000
0000
0000
0000
0000
0000
0001
0000
0000
0000
0000
0000
0000
0000
0000
0000
0000
0000
0000
0000
0000
0000
0000
0000
0000
0000
0000
0000
0000
0000
1000
0000
0000
0000
0000
0000
0000
0000
0000
0000
0000
0000
0000
0000
0000
0000
0000
0000
0000
0000
0000
0000
0000
0000
0001
0000
0000
0000
0000
0000
0000
0000
0000
0000
0000
0000
0000
0000
0000
0000
0000
0000
0000
0000
0000
0000
0000
0000
,
0100
0010
1000
0100
0010
0100
0001
0000
,
0100
0000
1000
0000
0010
0000
0001
1000
,
0100
0000
0001
0010
0000
1000
0000
0100
,
0000
0010
0100
0000
0010
1000
0001
0010
,
0100
0000
1000
0000
0001
0010
1000
0100
,
0001
0000
1000
0000
0100
0000
0010
0001
,
1000
0000
0100
1000
0001
0000
0010
0100
,
1000
0000
0001
0010
0100
1000
0100
0001
,
0010
0000
0100
0000
1000
0001
0010
0100
,
1000
0000
0001
0000
0100
0010
1000
0001
,
0010
0000
0100
1000
0000
0001
0000
0010
,
1000
0100
0010
0000
0001
1000
0100
0001
,
1000
0000
0100
0000
0001
0000
0100
0010
,
1000
0000
0001
0000
0010
1000
0100
0000
,
0001
0010
1000
0001
0100
1000
0010
0100
,
0001
0100
0001
0010
0100
1000
0010
0001
,
0020
0000
0000
0000
0000
0000
0000
0000
0000
0000
0000
0000
0000
0000
0000
0000
0000
0000
0000
0000
0000
0000
0000
0000
0000
0000
0000
0000
0000
0000
0000
0030
;
