#TITLE:SOMETHING GOT ME STARTED;
#ARTIST:BTH;
#GENRE:HOUSE;
#CREDIT:B. M'Rey;
#MUSIC:SOMETHING GOT ME STARTED.ogg;
#BANNER:SOMETHING GOT ME STARTED-bn.png;
#BACKGROUND:SOMETHING GOT ME STARTED-bg.png;
#CDTITLE:./CDTITLES/DANCEMANIA EX3.PNG;
#SAMPLESTART:63.260;
#SAMPLELENGTH:12.000;
#OFFSET:-0.600;
#BPMS:0.000=129.990;

//--------------- dance-single - B. M'Rey ----------------
#NOTES:
     dance-single:
     B. M'Rey:
     Beginner:
     2:
     0.142302,0.207321,0.089083,0,0,123,112,11,0,0,0,0.142302,0.207321,0.089083,0,0,123,112,11,0,0,0:
0000
0000
0000
0000
,
0000
0000
0000
0000
,
0000
0000
0000
0000
,
0000
0000
0000
0000
,
0000
0000
0000
0000
,
0000
0000
0000
0000
,
0000
0000
0000
0000
,
0000
0000
0000
0000
,
1000
0000
0000
0000
,
0010
0000
0100
0000
,
0001
0000
0000
0000
,
0100
0000
0000
0000
,
0010
0000
0000
0000
,
1000
0000
0010
0000
,
0001
0000
0000
0000
,
0100
0000
0000
0000
,
0010
0000
0001
0000
,
0001
0000
1000
0000
,
0010
0000
0100
0000
,
0000
0000
0000
0000
,
1000
0000
0001
0000
,
0010
0000
0100
0000
,
0001
0000
0000
0000
,
0000
0000
0000
0000
,
0001
0000
0010
0000
,
1000
0000
0100
0000
,
0001
0000
0010
0000
,
0100
0000
0000
0000
,
0001
0000
1000
0000
,
0100
0000
0001
0000
,
0010
0000
0001
0000
,
0100
0000
0000
0000
,
1000
1000
1000
0000
,
0001
0001
0001
0000
,
1000
1000
1000
0000
,
1001
0000
0000
0000
,
0010
0010
0010
0000
,
0100
0100
0100
0000
,
0010
0010
0010
0000
,
0001
0000
1000
0000
,
0001
0001
0001
0000
,
1000
1000
1000
0000
,
0001
0001
0000
0000
,
0110
0000
0000
0000
,
0100
0100
0100
0000
,
0010
0010
0010
0000
,
0100
0100
0100
0000
,
0001
0000
0000
0000
,
0010
0010
0010
0000
,
0110
0000
0000
0000
,
0001
0001
0001
0000
,
1001
0000
0000
0000
,
0100
0100
0100
0000
,
0110
0000
0000
0000
,
0001
0001
0001
0000
,
0001
0000
1001
0000
,
0100
0100
0100
0000
,
0100
0000
0110
0000
,
0001
0010
0001
0000
,
0010
0000
0011
0000
,
1000
0100
1000
0000
,
1000
0000
1100
0000
,
0010
0100
0010
0000
,
0110
0000
0000
0000
,
1001
0000
0000
0000
;

//--------------- dance-single - B. M'Rey ----------------
#NOTES:
     dance-single:
     B. M'Rey:
     Easy:
     3:
     0.209403,0.310982,0.21056,0.129576,0,181,155,26,16,0,0,0.209403,0.310982,0.21056,0.129576,0,181,155,26,16,0,0:
0000
0000
0000
0000
,
0000
0000
0000
0000
,
0000
0000
0000
0000
,
0000
0000
0000
0000
,
0200
0000
0000
0000
,
0302
0000
0000
0000
,
2003
0000
0000
0000
,
3010
0010
0010
0000
,
1000
0000
0010
0000
,
0010
0100
0010
0100
,
0001
0000
1000
0000
,
0010
0000
0100
0000
,
0001
0000
1000
0000
,
0100
0001
0100
0001
,
0010
0000
1000
0000
,
0010
0000
0100
0000
,
0001
0010
0100
0000
,
0000
0000
1000
0001
,
0010
0000
0100
0000
,
0100
0000
0100
0000
,
1000
0001
0010
0100
,
0000
0010
0001
0001
,
1000
0010
0100
0000
,
0100
0000
0100
0000
,
0002
0000
0023
0000
,
0230
0000
2300
0000
,
3002
0000
0023
0000
,
0130
0000
1000
0000
,
0002
0000
0023
0000
,
0230
0000
2300
0000
,
3002
0000
0023
0000
,
0230
0000
0300
0000
,
1000
0001
1000
0000
,
0001
1000
0001
0000
,
1000
0001
1000
0000
,
1001
1001
1001
1001
,
0010
0100
0010
0000
,
0100
0010
0100
0000
,
0010
0100
0010
0000
,
0100
0010
0100
0000
,
0001
0010
0001
0000
,
0001
0010
0001
0000
,
0010
0001
0010
0000
,
0011
0011
0011
0011
,
0010
0100
0010
0000
,
0100
0010
0100
0000
,
0010
0100
0010
0000
,
1000
0001
1000
0000
,
0010
0001
0010
0000
,
1100
1100
1100
0000
,
0010
0001
0010
0000
,
0011
0011
0011
0000
,
0010
0100
0010
0000
,
0110
0110
0110
0000
,
1000
0001
1000
0000
,
1010
0000
0101
0000
,
0100
0001
0100
0000
,
0101
0000
1010
0000
,
0001
1000
0001
0000
,
1001
0000
1001
0000
,
0010
0100
0010
0000
,
0110
0000
0110
0000
,
1000
0000
0010
0000
,
1000
0000
0001
0000
,
1001
0000
0000
0000
;

//--------------- dance-single - B. M'Rey ----------------
#NOTES:
     dance-single:
     B. M'Rey:
     Medium:
     7:
     0.381785,0.467383,0.364431,0.234856,0,330,285,45,29,0,0,0.381785,0.467383,0.364431,0.234856,0,330,285,45,29,0,0:
0000
0000
0000
0000
,
0000
0000
0000
0000
,
0000
0000
0000
0000
,
0000
0000
0000
0000
,
2000
0000
0000
0000
,
3002
0000
0000
0000
,
0203
0000
0000
0000
,
0320
0000
0130
0000
,
1000
0001
0010
0100
,
1000
0001
1000
0001
1000
0001
1000
0000
,
0010
0100
0001
0010
,
1000
0001
0010
0100
,
0001
0010
1000
0100
,
0010
0100
0010
0100
0010
0100
0010
0100
,
0010
1000
0001
0010
,
0200
2300
3002
0013
,
1000
0001
0010
0100
,
0000
0100
0001
0010
,
0001
0100
0010
0100
,
0000
0010
0000
0010
,
0010
0001
0010
0100
,
0000
0100
0001
0010
,
1000
0001
0010
0100
,
1000
0001
0010
0001
,
0200
0310
0002
0013
,
2000
3100
0020
0130
,
2000
3100
0002
0013
,
0100
1000
0001
0010
,
2000
3100
0002
0013
,
0200
0310
0020
0130
,
0002
1003
0020
0130
,
2002
0000
0000
3003
,
0100
0010
0100
0010
0000
0000
0110
0000
,
1000
0001
1000
0001
0000
0000
1001
0000
,
0010
0100
0010
0100
0010
0000
0110
0000
,
0002
0023
0230
2300
,
3001
0010
0001
0010
0001
0000
0011
0000
,
0100
1000
0100
1000
0100
0000
1100
0000
,
0010
0100
0010
0100
0010
0000
0110
0000
,
0110
1001
0110
1001
,
0001
0010
0001
0010
0001
0000
0011
0000
,
0100
1000
0100
1000
0100
0000
1100
0000
,
0001
0100
0001
0100
0001
0000
0101
0000
,
2000
3020
0230
0302
,
0013
0100
0010
0100
0010
0000
0110
0000
,
1000
0100
1000
0100
1000
0000
1100
0000
,
0001
0010
0001
0010
0001
0000
0011
0000
,
0001
1000
0001
1000
0001
0000
1001
0000
,
0001
0100
0001
0100
0001
0000
0101
0000
,
0010
1000
0010
1000
1010
0000
1010
0000
,
0100
0010
0100
0010
0100
0000
0110
0000
,
0001
1000
0001
1000
1001
0000
1001
0000
,
0010
0001
0010
0001
0010
0000
0011
0000
,
0100
0010
0100
0010
0110
0000
0110
0000
,
1000
0010
1000
0010
1010
0000
1010
0000
,
0001
0010
0001
0010
0011
0000
0011
0000
,
0100
1000
0100
1000
1100
0000
1100
0000
,
0001
0010
0001
0010
0011
0000
0011
0000
,
0100
0010
0100
0010
0110
0000
0110
0000
,
0001
1000
0001
1000
1001
0000
1001
0000
,
0100
0001
0100
0001
0101
0000
0101
0000
,
0010
1000
0010
1000
1010
0000
1010
0000
,
0100
0010
0100
0010
0110
0000
0110
0000
,
0001
0010
0100
1000
,
0001
1000
0000
0000
0000
0000
0000
0000
;

//--------------- dance-single - B. M'Rey ----------------
#NOTES:
     dance-single:
     B. M'Rey:
     Hard:
     9:
     0.533343,0.571803,0.16197,0.080985,0.287496,461,441,20,10,0,0,0.533343,0.571803,0.16197,0.080985,0.287496,461,441,20,10,0,0:
0000
0000
0000
0000
,
0000
0000
0000
0000
,
0000
0000
0000
0000
,
0000
0000
0000
0000
,
0010
0001
0010
0100
,
1000
0000
0001
0000
1000
0000
0001
0000
1000
0000
0000
0001
0000
0000
0000
0000
,
0100
1000
0001
0100
,
0010
0001
1000
0000
,
0001
0010
0100
1000
0100
0000
0010
0000
,
0001
0000
1000
0000
0001
0000
1000
0000
0001
0000
0000
1000
0000
0000
0100
0000
,
0001
1000
0010
0100
0010
0001
1000
0000
,
0001
1000
0010
0100
,
1000
0001
0010
0100
1000
0010
0100
0000
,
0001
0000
0010
0000
1000
0000
0100
0000
1000
0000
0000
0001
0000
0000
1000
0000
,
0100
0010
0001
1000
0010
0100
0001
1000
,
0200
0302
0023
1030
,
0100
0000
0001
0000
0100
0000
0001
0000
0100
0000
0000
0001
0000
0000
0000
0000
,
1000
0000
0000
0100
0000
0000
0000
0000
0010
0000
0000
0000
0100
0000
1000
0100
,
0000
0001
0000
0010
0000
0100
0010
1000
,
0000
0001
0100
0010
0000
1000
0001
0010
,
0100
0000
1000
0000
0100
0000
1000
0000
0100
0000
0000
1000
0000
0000
0000
0000
,
0100
0000
0000
0001
0000
0000
0010
0000
0100
0000
1000
0000
0001
0000
0010
1000
,
0100
0001
0000
0020
0000
0230
0000
2300
,
0000
3002
0000
0203
0000
0320
0000
1030
,
0001
0010
0000
0100
0000
1000
0000
0001
,
0010
0100
0000
0010
0000
1000
0000
0001
,
0010
0001
0000
0100
0000
1000
0000
0010
,
1000
0000
0010
0000
0100
0000
1000
0100
0010
0000
0001
0000
0000
0000
0001
0000
,
1000
0001
0000
0100
0000
1000
0000
0001
,
0010
0001
0000
0100
0000
0010
0000
0100
,
0010
0100
0000
1000
0000
0100
0000
1000
,
0200
0000
0000
0300
0000
0000
0000
0001
,
0001
1000
0001
0000
0010
0000
0100
1000
0000
0000
0100
0000
0001
0000
0010
0000
,
0010
0100
0010
0000
0100
0000
1000
0100
0010
0000
0001
0000
0010
0000
0100
0000
,
0100
1000
0100
0000
0010
0000
0001
0010
0001
0000
0100
0000
1000
0000
0000
0000
,
1100
0000
0110
0000
0011
0000
1001
1000
,
1000
0001
1000
0000
0010
0000
0100
0010
0100
0000
1000
0000
0000
0100
0000
0000
,
0010
0100
0010
0000
0001
0000
0010
0100
0010
0000
1000
0000
0000
0001
0000
0000
,
0100
0010
0100
0000
1000
0000
0001
0010
0001
0000
0100
0000
0000
1000
0000
0000
,
0001
0010
0001
0000
1000
0000
0010
0100
0010
0000
0001
0000
1000
0000
0010
0000
,
0010
0100
0010
0000
0001
0000
0001
1000
0001
0000
0100
0000
0010
0000
1000
0000
,
0001
1000
0001
0000
0100
0000
0010
0100
0010
0000
0001
0000
1000
0000
0010
0000
,
0100
0010
0100
0000
0001
0000
1000
0100
1000
0000
0001
0000
0010
0000
0100
0000
,
0101
0000
1001
0000
1010
0000
0110
0100
,
0100
0010
0100
0000
1000
0000
0001
1000
0001
0000
0100
0000
0000
0001
0000
0000
,
1000
0001
1000
0000
0010
0000
1000
0001
1000
0000
0100
0000
0000
0010
0000
0000
,
0001
1000
0001
0000
0100
0000
0010
1000
0010
0000
0001
0000
0000
0100
0000
0000
,
0010
1000
0010
0000
0100
0000
1000
0001
1000
0000
0010
0000
0000
0100
0000
0000
,
1000
0001
1000
0000
0010
0000
0010
0100
0010
0000
0001
0000
1000
0000
0100
0000
,
1100
0000
0110
0000
0011
0000
1001
1000
,
1000
0001
1000
0000
0010
0000
0100
0010
0100
0000
1000
0000
0001
0000
0100
0000
,
0101
0000
1001
0000
1010
0000
0110
0100
,
0100
0010
0100
0000
1000
0000
0001
1000
0001
0000
0100
0000
0010
0000
0001
0000
,
0011
0000
0110
0000
1100
0000
1001
0001
,
0001
1000
0001
0000
0100
0000
0010
0100
0010
0000
0001
0000
0100
0000
0001
0000
,
0100
0010
0001
0000
1000
0000
0100
0010
0100
0000
0001
0000
1000
0000
0100
0000
,
0010
0100
0010
0000
0001
0000
1000
0100
1000
0000
0010
0000
0001
0000
0010
0000
,
1000
0100
1000
0000
0001
0000
0100
0010
0100
0000
1000
0000
0001
0000
0100
0000
,
0100
0010
0100
0000
1000
0000
1000
0001
1000
0000
0010
0000
0100
0000
0001
0000
,
1000
0001
1000
0000
0010
0000
0100
0010
0100
0000
1000
0000
0001
0000
0100
0000
,
0010
0100
0010
0000
1000
0000
0001
0010
0001
0000
1000
0000
0100
0000
0001
0000
,
0001
1000
0001
0000
0100
0000
0010
0100
0010
0000
0001
0000
0100
0000
0001
0000
,
0100
0010
0001
0000
1000
0000
0100
0010
0100
0000
0001
0000
1000
0000
0100
0000
,
0010
0100
0010
0000
0001
0000
1000
0000
1000
0000
0010
0000
0001
0000
0010
0000
,
1000
0000
1000
0100
0000
0000
0000
0000
0000
0000
0000
0000
0000
0000
0000
0000
;
