#VERSION:0.83;
#TITLE:SHAME;
#ARTIST:BASIC ELEMENT;
#GENRE:DISCO;
#CREDIT:B. M'Rey;
#MUSIC:SHAME.ogg;
#BANNER:SHAME-BN.png;
#BACKGROUND:SHAME-BG.png;
#CDTITLE:./CDTITLES/ZIPMANIA II.PNG;
#SAMPLESTART:52.200;
#SAMPLELENGTH:15.000;
#OFFSET:-0.103;
#BPMS:0.000=129.935;

//--------------- dance-single - B. M'Rey ----------------
#NOTEDATA:;
#STEPSTYPE:dance-single;
#DESCRIPTION:B. M'Rey;
#DIFFICULTY:Beginner;
#METER:3;
#RADARVALUES:0.124024,0.25957,0.105588,0.046928,0,74,65,9,4,0,0,0.124024,0.25957,0.105588,0.046928,0,74,65,9,4,0,0;
#NOTES:
0000
0000
0000
0000
,
0000
0000
0000
0000
,
0000
0000
0000
0000
,
0000
0000
0000
0000
,
0000
0000
0000
0000
,
0000
0000
0000
0000
,
0000
0000
0000
0000
,
0000
0000
0000
0000
,
0000
1000
0000
0000
,
0000
0001
0000
0000
,
0000
0010
0000
0000
,
0000
0100
0000
0000
,
0000
0001
0000
0000
,
0000
1000
0000
0000
,
0000
0100
0000
0000
,
0000
0001
0000
0000
,
0000
0010
0000
1000
,
0000
0001
0000
0010
,
0000
0100
0000
1000
,
0000
0001
0000
0010
,
0000
0001
0000
0100
,
0000
0010
0000
1000
,
0000
0001
0000
0010
,
0000
0001
0000
0100
,
0000
2000
0000
0000
,
0000
3200
0000
0000
,
0000
0320
0000
0000
,
0000
0032
0000
0000
,
0000
1003
0000
0010
,
0000
0100
0000
0001
,
0000
0010
0000
0001
,
0000
1000
0000
0010
,
0000
0100
0000
0001
,
0000
1000
0000
0010
,
0000
0100
0000
0001
,
0000
0010
0000
1000
,
0000
0110
0000
0110
,
0000
0010
0000
0100
,
0000
1001
0000
1001
,
0000
0001
0001
1000
,
1000
0110
0000
0110
,
0000
0100
0000
0010
,
0000
1001
0000
1001
,
0000
0001
0001
1000
,
1000
1001
0000
0000
;

//--------------- dance-single - B. M'Rey ----------------
#NOTEDATA:;
#STEPSTYPE:dance-single;
#DESCRIPTION:B. M'Rey;
#DIFFICULTY:Easy;
#METER:6;
#RADARVALUES:0.216204,0.337442,0.129052,0.164248,0,129,118,11,14,0,0,0.216204,0.337442,0.129052,0.164248,0,129,118,11,14,0,0;
#NOTES:
0000
0000
0000
0000
,
0000
0000
0000
0000
,
0000
0000
0000
0000
,
0000
0000
0000
0000
,
0000
0000
0000
0000
,
0000
0000
0000
0000
,
0000
0000
0000
0000
,
0000
0000
0000
0000
,
0000
1000
0000
0001
,
0000
0010
0000
0100
,
0000
1000
0001
1000
,
0001
0000
1000
0001
,
1000
0001
1000
0000
,
0001
0000
0100
0000
,
0010
0000
0001
1000
,
0001
0000
0001
1000
,
0001
0000
1000
0100
,
0010
0001
0010
0200
,
0000
0300
0001
1000
,
0001
0000
0001
1000
,
0001
0000
1000
0010
,
0100
0001
0010
2000
,
0000
3000
0010
0100
,
0010
0000
0010
0100
,
0010
0000
0001
0010
,
1000
0100
0001
0010
,
0100
1000
0100
1000
,
0000
1001
1001
1010
,
1010
0110
0000
1000
,
0001
0010
0100
0000
,
1000
0001
0010
0100
,
1000
0010
0100
0001
,
0010
1000
1001
1001
,
0100
0001
0010
0000
,
1000
0001
0010
0100
,
1000
0002
2003
3200
,
0320
0031
0001
1000
,
1000
0000
1001
0000
,
1001
0100
0100
0010
,
0010
0002
0023
0230
,
2300
3100
0100
0010
,
0010
0000
0110
0000
,
0110
0010
0010
0100
,
0100
2000
3200
0320
,
0032
1003
0000
0000
;

//--------------- dance-single - B. M'Rey ----------------
#NOTEDATA:;
#STEPSTYPE:dance-single;
#DESCRIPTION:B. M'Rey;
#DIFFICULTY:Medium;
#METER:8;
#RADARVALUES:0.308384,0.467227,0.316764,0.164248,0,184,157,27,14,0,2,0.308384,0.467227,0.316764,0.164248,0,184,157,27,14,0,2;
#NOTES:
0000
0000
0000
0000
,
0000
0000
0000
0000
,
0000
0000
0000
0000
,
0000
0000
0000
0000
,
0000
0000
0000
0000
,
0000
0000
0000
0000
,
0000
0000
0000
0000
,
0000
0000
0000
0000
,
0000
0000
1000
0000
0001
0100
0010
0000
,
0100
2000
0000
0000
,
3001
0000
0100
0000
1000
0000
0001
0010
,
0100
0000
1000
0000
0001
0000
0010
0100
,
1000
0000
0100
0000
0001
0010
1000
0000
,
0100
0002
0000
0000
,
1003
0000
0010
0000
1000
0000
0001
0010
,
0100
0000
1000
0000
0010
0100
0001
0100
,
0001
0100
0001
0000
1000
0000
0001
0000
,
0010
0100
1000
0000
0100
0000
0002
0000
,
0003
0100
0010
1000
,
0001
0000
0100
0001
,
0010
0000
0100
0001
,
0010
1000
0001
0020
,
0030
0000
0100
1000
,
0001
0000
1000
0001
,
0010
0000
1000
0001
,
0010
0100
1000
0001
,
0010
0002
0000
2003
,
0000
3000
1001
0000
0101
0000
0011
0000
,
0001
1001
0100
0010
,
0001
0010
0100
0010
0001
0000
1000
0000
,
0010
0000
0100
1000
0100
0010
0001
0000
,
0001
0010
0100
0000
1000
0001
1000
0001
,
1000
0001
1000
0000
0110
0000
0110
0000
,
0001
0010
0100
0010
0001
0000
1000
0000
,
0001
0010
0100
0000
1000
0000
0010
0001
,
0100
0020
2030
3002
,
0203
0311
0011
1100
,
1100
0000
0100
0100
0100
0000
1000
1000
,
1000
0011
0011
1100
,
1100
0020
0032
2003
,
3020
1130
1100
0011
,
0011
0000
0001
0001
0001
0000
0010
0010
,
0010
0011
0011
1100
,
1100
1001
1001
1001
,
1001
1001
0000
0000
;

//--------------- dance-single - B. M'Rey ----------------
#NOTEDATA:;
#STEPSTYPE:dance-single;
#DESCRIPTION:B. M'Rey;
#DIFFICULTY:Hard;
#METER:11;
#RADARVALUES:0.434084,0.571055,0.164248,0.328496,0.20531,259,245,14,28,0,0,0.434084,0.571055,0.164248,0.328496,0.20531,259,245,14,28,0,0;
#NOTES:
0000
0000
0000
0000
,
0000
0000
0000
0000
,
0000
0000
0000
0000
,
0000
0000
0000
0000
,
0000
0000
0000
0000
,
0000
0000
0000
0000
,
0000
0000
0000
0000
,
0000
0000
0000
0000
0000
0000
0000
0000
0000
0000
0000
0000
0001
1000
0000
0010
,
0100
0010
0100
0000
1000
0000
0000
0000
0010
0000
0001
0000
1000
0000
0000
0010
,
0000
0200
0000
0000
0000
0000
0000
0310
,
0001
0010
0000
0000
0100
0000
1000
0000
0100
0000
1000
0000
0100
0000
0010
0001
,
0000
0100
0000
1000
0001
1000
0001
1000
,
0001
0010
0000
0100
1000
0000
0100
0000
0001
0000
0010
0000
0100
0000
0000
1000
,
0000
0200
0000
0000
0000
0000
0000
0310
,
0001
0010
0000
0100
0000
0000
1000
0000
0001
0000
1000
0000
0001
0000
1000
0001
,
0000
0000
0100
0000
0000
0000
0010
0000
0001
0000
0010
0000
0001
0010
0001
0010
,
0001
0010
0001
0010
0001
0000
0000
0000
1000
0000
0001
0010
0000
0000
0100
0000
,
1000
0000
0010
0000
0100
0000
0000
0010
0000
0000
0002
0000
0000
0000
1000
0000
,
1000
0003
0010
0100
1000
0001
0010
0100
,
1000
0000
0000
1000
0100
0010
0001
1000
,
0100
0000
0000
0000
0000
0000
0000
0000
0001
0000
0010
1000
0000
0000
0100
0000
,
0001
0000
0010
0000
1000
0000
0000
0100
0000
0000
0002
0000
0000
0000
1000
0000
,
1000
0003
0000
0100
0001
0010
1000
0100
,
0001
0000
0000
0010
1000
0100
0001
0010
,
0100
0000
1000
0000
0001
0010
0001
0010
,
0100
0010
0100
1000
0100
1000
0100
0010
,
0100
0010
0002
0000
2003
0000
3020
0000
,
0230
0302
2003
3020
,
0230
0000
0310
0000
0001
0000
1000
0001
,
1000
0001
1000
0001
1000
0000
0100
0001
,
0010
0000
1000
0000
0100
0000
0010
0000
1000
0000
0001
0100
0010
0000
0100
0000
,
0001
0000
1000
0010
0100
0000
0001
0000
0010
0000
0001
0000
1000
0000
0100
0000
,
0001
0000
0010
0100
0010
0000
0000
0000
2200
3300
0000
0000
0022
0033
0100
0000
,
1000
0001
0010
0100
0001
0000
1000
0001
,
0010
0000
0100
0000
0001
0000
1000
0000
0100
0000
0001
0100
0010
0000
1000
0000
,
0100
0000
0010
0001
0200
0000
0000
0000
2300
0000
0000
0000
3002
0000
0000
0000
,
0023
0000
0000
0000
0130
0000
1000
0100
0000
0000
0001
0000
0010
0000
1000
0100
,
0000
0001
0110
0110
0110
0000
0110
0110
,
0110
0000
0100
0000
0001
0000
0010
0100
0000
0000
1000
0000
0100
0000
0001
0010
,
0000
0100
2000
0000
3200
0000
0302
0000
,
0023
0000
0000
0000
0130
0000
1000
0100
0000
0000
0001
0000
0010
0000
0100
1000
,
0000
0100
1001
1001
1001
0000
1001
1001
,
1001
0000
0100
0000
0010
0000
0001
0010
0000
0000
1000
0000
0100
0000
0010
0001
,
0000
0100
2000
0000
3002
0000
0023
0000
,
0230
1300
0000
0000
;
