#TITLE:SEXUAL;
#SUBTITLE:(THUNDERPUSS 2000 REMIX);
#ARTIST:AMBER;
#GENRE:EUROPOP;
#CREDIT:B. M'Rey;
#MUSIC:SEXUAL (THUNDERPUSS 2000 REMIX).ogg;
#BANNER:SEXUAL (THUNDERPUSS 2000 REMIX)-BN.png;
#BACKGROUND:SEXUAL (THUNDERPUSS 2000 REMIX)-bg.png;
#CDTITLE:./CDTITLES/DANCEMANIA DIAMOND 2.png;
#SAMPLESTART:66.819;
#SAMPLELENGTH:12.000;
#OFFSET:-0.120;
#BPMS:0.000=130.970,64.000=65.485,88.000=130.970,184.000=65.485;

//--------------- dance-single - B. M'Rey ----------------
#NOTES:
     dance-single:
     B. M'Rey:
     Beginner:
     1:
     0.058791,0.087023,0.008574,0.085737,0,48,47,1,10,0,0,0.058791,0.087023,0.008574,0.085737,0,48,47,1,10,0,0:
0000
0000
0000
0000
,
0000
0000
0000
0000
,
0000
0000
0000
0000
,
0000
0000
0000
0000
,
1000
0000
0001
0000
,
1000
0000
0001
0000
,
0100
0000
0010
0000
,
0100
0000
0010
0000
,
0100
0000
0001
0000
,
1000
0000
0001
0000
,
1000
0000
0010
0000
,
0100
0000
0010
0000
,
0100
0000
0001
0000
,
1000
0000
0001
0000
,
1000
0000
0010
0000
,
0100
0000
0010
0000
,
0100
0000
0000
0000
,
1000
0000
0000
0000
,
0100
0000
0000
0000
,
1001
0100
0001
0010
,
0001
0100
0010
0100
,
1000
0000
0000
0100
,
0001
0000
0100
0000
,
0010
0000
1000
0000
,
0100
0000
0001
0000
,
0010
0000
0001
0000
,
0010
0000
0100
0000
,
0010
0000
1000
0000
,
0100
0000
1000
0000
,
0200
0000
0000
0000
,
0300
0000
0001
0000
,
0100
0000
0100
0010
,
1000
0000
0000
0000
,
1000
0000
0010
0001
,
0100
0000
0000
0000
,
0010
0000
0001
0100
,
0010
0000
0000
0000
,
1000
0001
1000
0001
,
1000
0000
0010
0000
,
0100
0000
0001
0000
,
0010
0000
0001
0000
,
1000
0000
0010
0000
,
0100
0000
0000
0000
,
0010
0000
0000
0000
,
1000
0000
0010
0000
,
0100
0000
0001
0000
,
0020
0000
0000
0000
,
2030
0000
0000
0000
,
3002
0000
0000
0000
,
0023
0000
0000
0000
,
2030
0000
0000
3000
;

//--------------- dance-single - B. M'Rey ----------------
#NOTES:
     dance-single:
     B. M'Rey:
     Easy:
     2:
     0.131055,0.261069,0.042868,0.042868,0,107,102,5,5,0,0,0.131055,0.261069,0.042868,0.042868,0,107,102,5,5,0,0:
0000
0000
0000
0000
,
0000
0000
0000
0000
,
0000
0000
0000
0000
,
0000
0000
0000
0000
,
1000
0000
0001
0000
,
1000
0000
0001
0000
,
0100
0000
0010
0000
,
0100
0000
0010
0000
,
0010
0100
0001
0100
,
0001
0100
0010
1000
,
0010
1000
0010
0100
,
0001
0100
0001
0100
,
0010
1000
0001
1000
,
0001
1000
0010
0100
,
0010
0100
0010
1000
,
0001
1000
0010
1000
,
0100
0000
0000
0010
0000
0000
0001
0100
,
0010
0000
0000
0100
0000
0000
0010
1000
,
0010
0000
0000
0000
0000
0000
0000
1000
,
0100
0000
0000
0010
0000
0000
0100
1000
,
0001
0000
0000
1000
0000
0000
0010
0100
,
0010
0000
0000
0000
0000
0000
0010
0100
,
0001
1000
0001
1000
,
0001
0010
0100
0010
,
0100
0010
0001
0100
,
0001
0100
0001
0010
,
0100
1000
0100
1000
,
0110
0000
0001
0010
,
0011
0000
1100
0000
,
0100
0000
0000
0200
0000
0000
0000
0000
,
0301
0000
0001
0010
,
0100
1000
0100
1000
,
0010
0000
0000
0100
,
0010
0100
0000
0100
,
0010
0000
0010
0000
,
0001
0010
0000
0010
,
1001
0000
0110
0000
,
0001
0100
0001
1000
,
0010
0100
0001
0100
,
0001
0100
0010
1000
,
0001
1000
0001
1000
,
0010
0100
0010
0100
,
0010
1000
0100
1000
,
0100
1000
0001
0010
,
0001
1000
0001
1000
,
0010
1000
0010
0100
,
0020
0000
0000
0000
,
2030
0000
0000
0000
,
3002
0000
0000
0000
,
0023
0000
0000
0000
,
0032
0000
0000
0003
;

//--------------- dance-single - B. M'Rey ----------------
#NOTES:
     dance-single:
     B. M'Rey:
     Medium:
     5:
     0.244962,0.326336,0.042868,0.1629,0.021434,200,195,5,19,0,0,0.244962,0.326336,0.042868,0.1629,0.021434,200,195,5,19,0,0:
0000
0000
0000
0000
,
0000
0000
0000
0000
,
0000
0000
0000
0000
,
0000
0000
0000
0000
,
0001
1000
0001
1000
,
0001
0010
0100
0010
,
0100
1000
0100
1000
,
0001
1000
0001
0100
,
0001
1000
0100
0010
,
0001
0000
0001
0010
0001
0010
0001
1000
,
0100
1000
0001
0010
,
0001
0000
0001
1000
0001
1000
0001
0010
,
1000
0100
0010
0100
,
0001
0000
0001
1000
0001
1000
0001
0100
,
0001
0010
0001
1000
,
0001
0100
0001
1001
,
0100
0000
0000
1000
0000
0000
0001
0000
0000
1000
0000
0000
0010
0000
0001
0000
,
0100
0000
0000
1000
0000
0000
0010
0000
0000
0001
0000
0000
0001
0000
0100
0000
,
0200
0000
0000
1300
0000
0000
0000
0000
0000
0000
0000
0000
0000
0000
0001
0000
,
0100
0000
0000
1000
0000
0000
0010
0000
0000
0100
0000
0000
0001
0000
0100
0000
,
0001
0000
0000
1000
0000
0000
0100
0000
0000
0100
0000
0000
0010
0000
0001
0000
,
0010
0000
0000
0000
0010
0000
0001
0000
0010
0000
0001
0000
0010
0100
0001
0010
,
0100
0000
0000
1000
0000
0000
2000
0000
0000
0000
3001
0000
0000
0000
1000
0000
,
0001
0000
0000
0001
0000
0000
0010
0000
0100
0000
0001
0000
0000
0000
0010
0000
,
0100
0000
1000
0000
0000
0000
1000
0000
0100
0000
0000
0010
0000
0000
0010
0000
,
0001
0000
0000
1000
0000
0000
1000
0000
0010
0000
1000
0000
0010
0000
0100
0000
,
0000
0100
0001
0100
0000
1000
0000
1000
,
0100
0000
0001
0000
0001
0010
0000
1000
,
0000
1000
0010
1000
0000
0000
0010
0100
,
0001
0000
0000
0020
0000
0000
0000
0000
,
0031
0000
0001
0100
0001
0000
0010
0100
,
0000
1000
0000
0010
0000
0000
0001
0100
,
0001
0000
1000
0000
0000
0000
1000
0000
0010
0000
0000
0001
0000
0000
0100
0000
,
0001
0010
0000
0020
0000
0000
0130
1000
,
0100
0000
1000
0000
0000
0000
1000
0000
0001
0000
0000
0010
0000
0000
0100
0000
,
0010
0100
0000
2000
0000
0000
3001
0010
,
0100
0000
0001
0010
0001
0000
0001
0100
,
0110
0110
0110
0110
,
0110
0100
0001
1000
,
0001
0000
0100
1000
0001
0100
0001
0100
,
0001
0010
0100
0010
,
0001
0100
0010
1000
,
0200
0010
0001
0001
,
0001
0000
0310
1000
0001
1000
0001
0100
,
0001
0000
0010
0000
0010
0000
0010
1000
,
0100
0001
0010
0010
,
0002
0000
0203
0000
,
0302
0000
0103
1000
,
0200
0000
0320
0000
,
0032
0000
0203
0000
,
0020
0000
0000
0000
,
0330
0000
0000
0000
;

//--------------- dance-single - B. M'Rey ----------------
#NOTES:
     dance-single:
     B. M'Rey:
     Hard:
     7:
     0.383366,0.500382,0.008574,0.231489,0.08145,313,312,1,27,0,0,0.383366,0.500382,0.008574,0.231489,0.08145,313,312,1,27,0,0:
0000
0000
0000
0000
,
0000
0000
0000
0000
,
0000
0000
0000
0000
,
0000
0000
0000
0000
,
0100
0000
0100
1000
0100
0000
0001
0010
,
0001
0000
0100
1000
0001
1000
0001
1000
,
0100
0000
0100
0010
0100
0000
0001
1000
,
0001
0000
0001
0010
0100
0010
0100
1000
,
0100
0000
0100
1000
0100
0000
0100
1000
,
0100
0000
0001
0010
0001
1000
0100
1000
,
0010
0000
0010
0100
0010
0000
0001
0100
,
0001
0000
0001
0010
0100
1000
0001
0100
,
0001
0000
0100
0010
0001
0000
0001
0010
,
0001
0000
0100
1000
0001
0100
0010
0100
,
0010
0000
0001
1000
0001
0000
0001
1000
,
0100
0010
0100
1000
0010
0100
0001
0100
,
0010
0000
0000
0100
0000
0000
0001
0000
0000
0010
0000
0000
0100
0000
0001
0000
,
0001
0000
0000
0010
0000
0000
0100
0000
0000
0010
0000
0000
0001
0000
0100
0000
,
0100
0000
0000
1000
0000
0000
0001
0100
0010
0000
0010
1000
0010
1000
0001
0000
,
0001
0000
0010
0100
0000
0100
0010
0000
0100
1000
0000
1000
0001
0000
0001
0000
,
0001
0000
0010
0100
0000
0100
0010
0000
0001
1000
0000
1000
0010
0000
0010
0000
,
0001
0000
0001
0100
0001
0000
0010
1000
0010
0000
0001
0010
0001
0010
0001
1000
,
0001
1000
0001
0100
0010
1000
0010
1000
,
0001
0100
0001
0100
0001
0010
0100
0010
,
0100
0010
0001
0100
0001
0100
0001
1000
,
0010
1000
0010
0100
0010
0100
0001
0100
,
1001
0000
0001
1000
0010
1000
0001
0100
,
0101
0000
0001
1000
0100
1000
0100
1000
,
0101
0000
0001
0100
1001
0000
0100
1000
,
1100
0000
0000
0000
0110
0000
0000
0000
1001
0000
0000
0100
0000
0000
0010
0000
,
0100
0010
0100
1000
0001
0010
0001
0010
,
0100
1000
0100
1000
0100
0010
0001
0010
,
0100
0010
0100
1000
0001
0010
0001
0100
,
0010
0100
0001
0100
0001
1000
0001
1000
,
0010
1000
0010
0100
0010
0100
0001
0100
,
0001
1000
0001
0100
0010
0100
0010
0100
,
0011
0000
0001
0100
1001
0000
0010
1000
,
1010
0011
1010
1100
,
0100
0000
0100
1000
0001
0000
0001
0100
,
0001
0000
0010
0100
0001
1000
0100
0010
,
0100
0000
0001
1000
0100
0000
0100
0010
,
0100
0001
1000
0001
,
0010
0000
0001
0010
0001
0000
0001
1000
,
0100
0000
0100
1000
0001
0010
0001
0010
,
0001
0000
0100
1000
0010
0000
0001
0010
,
0100
0010
0001
0010
0001
1000
0001
1000
,
0100
0000
1000
0100
1000
0000
0010
0100
0010
0000
1000
0000
0001
0000
0100
0000
,
0020
0000
0230
0000
1300
0100
1000
0001
,
0010
0000
0010
0001
0010
0000
0100
1000
0100
0000
0010
0000
0001
0000
0010
0000
,
0200
0000
2300
0000
3010
0000
0010
0100
,
2002
0000
0000
3003
;
