#VERSION:0.83;
#TITLE:SALOME (Pablo Flores Club Edit);
#ARTIST:CHAYANNE;
#GENRE:HOUSE;
#CREDIT:B. M'Rey;
#MUSIC:SALOME (Pablo Flores Club Edit).ogg;
#BANNER:SALOME (Pablo Flores Club Edit)-bn.png;
#BACKGROUND:SALOME (Pablo Flores Club Edit)-bg.png;
#CDTITLE:./CDTITLES/DANCEMANIA LATINA.PNG;
#SAMPLESTART:51.350;
#SAMPLELENGTH:15.000;
#OFFSET:-0.197;
#BPMS:0.000=127.851;

//--------------- dance-single - B. M'Rey ----------------
#NOTEDATA:;
#STEPSTYPE:dance-single;
#DESCRIPTION:B. M'Rey;
#DIFFICULTY:Beginner;
#METER:4;
#RADARVALUES:0,0,0,0,0;
#NOTES:
0000
0000
0000
0000
,
0000
0000
0000
0000
,
0000
0000
0000
0000
,
0000
0000
0000
0000
,
1000
0001
0000
0000
,
0100
0010
0000
0000
,
0001
1000
0000
0000
,
0010
0100
0000
0000
,
1000
0001
0010
0100
,
0001
0000
0000
0000
,
1000
0010
0100
0001
,
0010
0000
0000
0000
,
1000
0000
0000
0001
,
0010
0000
0000
1000
,
0001
0000
0100
0000
,
0010
0100
0000
0001
,
0010
0000
0000
1000
,
0100
0000
0000
0010
,
0001
0000
0100
0000
,
0010
0100
0000
0001
,
0010
0000
0000
1000
,
0100
0000
0000
0010
,
0100
0000
0000
0001
,
0010
0000
0000
1000
,
0100
0000
0010
0100
,
0001
0000
0000
0001
,
0010
1000
0100
0010
,
1001
0000
0000
0000
,
0001
0000
0010
0010
,
0100
0000
1000
0010
,
0100
0000
0100
0000
,
0100
0000
0010
0100
,
0001
0000
0010
0000
,
0001
0000
1000
0001
,
0100
0010
0100
0010
,
0100
0000
0001
1000
,
0001
0000
0100
0000
,
0010
0000
0001
1000
,
0001
0000
0100
0000
,
0010
0000
0001
1000
,
0001
0000
0100
0000
,
0010
0000
0001
1000
,
0001
0000
0100
0000
,
1000
0000
0010
0000
,
0100
0000
0001
0000
,
0010
0000
0001
0000
,
0100
0000
0010
0000
,
1000
0000
0000
0000
0001
0000
0000
1000
,
0000
0001
0010
0000
,
0100
0000
0010
0000
,
1000
0000
0001
0000
,
0001
0010
0100
0000
,
1000
0100
0010
0000
,
0001
0010
0001
0000
,
1001
0000
1010
0000
,
0100
0010
0001
0000
,
0010
0100
1000
0000
,
0010
0100
0001
0000
,
0101
0000
0110
0000
,
1000
0100
0010
0000
,
0001
0010
0100
0000
,
1000
0100
0010
0000
,
0001
0000
1000
0000
,
0001
0010
0100
0000
,
1000
0100
0010
0000
,
0001
0010
0100
0000
,
0001
0000
0100
0000
,
1010
0000
0010
0000
,
0101
0000
0100
0000
,
0101
0000
0010
0000
,
1000
0000
0001
0000
,
1010
0000
0100
0000
,
0101
0000
0010
0000
,
1010
0000
0100
0000
,
0001
0000
1000
0000
,
1001
0000
0000
0000
;

//--------------- dance-single - B. M'Rey ----------------
#NOTEDATA:;
#STEPSTYPE:dance-single;
#DESCRIPTION:B. M'Rey;
#DIFFICULTY:Easy;
#METER:7;
#RADARVALUES:0,0,0,0,0;
#NOTES:
0000
0000
0000
0000
,
0000
0000
0000
0000
,
0000
0000
0000
0000
,
0000
0000
0000
0000
,
0100
1000
0100
0010
,
0100
0010
0001
0100
,
0001
0100
0001
0010
,
0100
0010
0100
0010
,
0001
1000
0010
1000
,
0001
1000
0010
0100
,
0010
0010
0010
0000
1000
1000
1000
0000
,
0100
1000
0100
0000
,
0100
0010
0001
1000
,
0001
1000
0100
1000
,
0100
0010
0100
0010
,
0001
0010
0001
0100
,
0001
0100
0010
0100
,
0010
1000
0010
1000
,
0001
1000
0001
0100
,
0010
0100
0010
0100
,
0002
1003
0001
1000
,
0002
0013
0100
0010
,
0200
0310
0001
1000
,
0001
1000
0001
0100
,
0010
0110
0010
0100
,
0001
1001
0001
1000
,
0001
0100
0010
0100
,
0110
0000
0000
0000
,
0100
1000
0100
1000
,
0001
0000
0001
0010
,
0200
0320
0230
2300
,
3100
0010
0001
1000
,
0001
1000
0001
0010
,
0100
0000
0001
0010
,
0200
2300
3020
2030
,
3010
1000
0011
0110
,
0110
0010
0100
0010
,
0001
0100
0101
0101
,
1001
1000
0010
1000
,
0001
1000
0101
0101
,
0101
0100
0010
0100
,
0010
1000
0110
0101
,
0101
0100
0010
0100
,
0010
0100
1000
0000
0001
0000
0100
0000
,
0001
0010
0100
0000
0001
0000
1000
0000
,
0100
0010
1000
0000
0100
0000
1000
0000
,
0001
0010
0100
0000
0001
0000
0100
0000
,
0001
1000
0010
0000
0100
0000
0010
0000
,
0100
1000
0010
0000
0001
0000
0100
0000
,
0001
0010
0100
0000
0001
0000
0010
0000
,
0100
0001
1000
0000
0100
0000
1000
0000
,
0010
0001
1000
0000
0010
0000
0100
0000
,
0010
1000
0100
0000
0001
0000
0100
0000
,
0001
0010
1000
0000
0001
0000
0010
0000
,
0100
0010
0100
0010
,
0001
0100
1000
0000
0001
0000
1000
0000
,
0001
0010
0100
0000
0010
0000
0100
0000
,
0010
0100
1000
0000
0010
0000
1000
0000
,
0001
0010
0001
1000
,
0001
1000
0010
0000
0100
0000
0010
0000
,
0100
1000
0010
0000
0001
0000
1000
0000
,
0001
0010
1000
0000
0001
0000
0100
0000
,
0010
0100
0010
0100
,
0001
0010
1000
0000
0001
0000
0100
0000
,
0010
1000
0100
0000
0010
0000
0100
0000
,
0001
0100
1000
0000
0001
0000
1000
0000
,
0001
0010
0100
0010
,
0100
1000
0010
0000
0001
0000
1000
0000
,
0001
0100
1000
0000
0001
0000
0010
0000
,
0100
0001
1000
0000
0100
0000
1000
0000
,
0100
0010
0001
0010
,
0001
1000
0010
0000
0100
0000
1000
0000
,
0100
0010
1000
0000
0100
0000
0010
0000
,
0001
1000
0010
0000
0001
0000
0010
0000
,
0100
1000
0100
1000
,
2002
0000
0000
0000
,
0000
0000
0000
0000
,
0000
0000
0000
0000
,
0000
0000
0000
0000
,
3003
0000
0000
0000
;

//--------------- dance-single - B. M'Rey ----------------
#NOTEDATA:;
#STEPSTYPE:dance-single;
#DESCRIPTION:B. M'Rey;
#DIFFICULTY:Medium;
#METER:9;
#RADARVALUES:0,0,0,0,0;
#NOTES:
0000
0000
0000
0000
,
0000
0000
0000
0000
,
0000
0000
0000
0000
,
0000
0000
0000
0000
,
0001
1000
0001
0000
0001
0010
0100
0000
,
0001
0010
0001
0000
0001
1000
0010
0000
,
0010
0100
0010
0000
0001
0100
0001
0000
,
0001
1000
0010
0100
0010
0000
0001
0100
,
0001
0000
0001
1000
0100
0000
0100
0010
,
0001
0000
0001
1000
0001
0000
0010
1000
,
0010
0100
0010
0100
0001
0100
0001
1000
,
1001
0000
0000
1010
0000
0000
1010
0000
0110
0000
0000
0000
0010
0000
0000
0000
,
0001
0100
0001
0000
0001
0010
0100
0010
,
0001
0100
0000
1000
0001
0000
0010
0100
,
0010
0000
0001
0100
0001
0000
0001
1000
,
0110
0000
1010
0000
0010
1000
0100
1000
,
0100
0010
0100
0000
0001
0010
0001
1000
,
0001
1000
0010
0000
0010
0100
0001
0000
,
0001
0100
0001
0000
0100
0010
0100
0010
,
1001
0000
1001
0000
0001
0100
0010
0100
,
0020
0000
0031
0000
0100
0010
0100
0010
,
0002
0000
1003
0000
0001
0010
0100
0010
,
0002
0000
0013
0000
0100
1000
0001
1000
,
0010
0100
0000
0100
0010
0000
0001
0100
,
0001
0100
0001
1000
0000
0010
0000
0100
,
0010
1000
0100
1000
0000
1000
0000
0010
,
0001
0100
0001
0010
0100
0010
0100
0010
,
0001
0000
0001
0000
0010
1000
0010
1000
,
0010
0000
0100
0000
0100
1000
0100
0010
,
0001
0000
0001
0000
0100
1000
0100
1000
,
0200
0302
0023
0230
,
2300
0000
3100
0010
0001
0010
0001
0010
,
0100
0000
0100
0000
0001
1000
0001
0100
,
0001
0000
0010
0100
0010
1000
0100
1000
,
0002
0203
0320
2030
,
3001
0000
0100
1000
0101
0000
0101
0000
,
0101
0000
0100
0010
0001
0010
0001
0100
,
0001
0010
1010
1010
,
1100
0000
0001
0010
0001
0010
0001
1000
,
0010
0001
0101
0011
,
0110
0000
0100
0010
0001
1000
0100
1000
,
0100
0001
0101
1001
,
1010
0000
0010
1000
0001
0010
0001
1000
,
0001
1000
0100
0000
0100
0010
0100
0010
,
0001
0100
0001
0000
0010
0100
0010
0000
,
0010
0100
0001
0000
0001
0100
0010
1000
,
0010
0100
0010
0000
0001
0100
0001
0000
,
0100
1000
0001
0000
0001
0100
0001
0000
,
0010
0100
0001
0100
0001
0100
0010
0000
,
0010
1000
0010
0000
0001
0100
0001
0000
,
0010
1000
0010
0000
0010
0100
0001
0100
,
0001
0100
0010
1000
0100
0000
0010
0000
,
0010
0100
0010
0100
0001
0000
1000
0000
,
0001
0100
0010
1000
0010
0000
0100
0000
,
0001
0100
0001
0000
0100
0010
0100
0000
,
0001
1000
0001
1000
0001
0000
0100
0000
,
0010
0100
0001
1000
0001
0000
0100
0000
,
0010
1000
0010
1000
0010
0000
0100
0000
,
0001
0100
0010
0000
0010
1000
0010
0000
,
0001
0100
0001
0000
1010
0000
0001
0000
,
0010
0100
0010
0000
0110
0000
0100
0000
,
0100
1000
0001
0000
0011
0000
0001
1000
,
0100
0000
0100
0000
0100
1000
0001
0000
,
0001
1000
0100
0000
0110
0000
0100
0000
,
0001
1000
0001
0000
0110
0000
0100
0000
,
0100
1000
0001
0000
0101
0000
0001
0100
,
0010
0000
0010
1000
0010
0000
0001
1000
,
0001
0000
0001
0000
0100
0010
0100
0000
,
0100
0000
0001
0000
0001
0010
0001
0000
,
0100
0000
0100
0000
0100
0010
0001
0100
,
0001
0000
0001
0000
0100
0010
0100
0000
,
0010
0000
0010
0000
0001
0010
0001
0000
,
0001
0000
0010
0000
0010
1000
0001
0000
,
0001
0000
0001
0000
0010
0100
0010
0100
,
0001
0000
0001
0000
0010
1000
0010
0000
,
2002
0000
0000
0000
,
0000
0000
0000
0000
,
0000
0000
0000
0000
,
0000
0000
0000
0000
,
3003
0000
0000
0000
;

//--------------- dance-single - B. M'Rey ----------------
#NOTEDATA:;
#STEPSTYPE:dance-single;
#DESCRIPTION:B. M'Rey;
#DIFFICULTY:Hard;
#METER:15;
#RADARVALUES:0,0,0,0,0;
#NOTES:
0000
0000
0000
0000
,
0000
0000
0000
0000
,
0000
0000
0000
0000
,
0000
0000
0000
0000
,
0001
0000
1000
0001
1000
0000
1000
0001
1000
0000
0100
0010
0100
0000
1000
0000
,
0010
0000
1000
0010
1000
0000
0100
0000
0001
0000
1000
0000
0001
0000
1000
0000
,
0001
0000
0010
0100
0010
0000
0010
0100
0010
0000
0010
0001
0010
0000
0100
0000
,
0010
0000
0100
1000
0010
0001
0000
1000
0001
0000
0010
0000
0001
0100
1000
0000
,
0001
0100
0000
1000
0010
0000
0100
0010
0000
0100
0000
0010
0000
0000
0010
0000
,
0001
0010
0001
1000
0010
1000
0010
1000
,
0001
0100
0001
0100
0001
0100
0001
0100
0001
0100
1000
0100
1000
0100
1000
0100
,
1100
0000
0000
0101
0000
0000
0100
0000
0001
0010
0000
1000
0001
0000
0010
0000
,
0100
0000
0010
0000
0100
0000
1000
0000
0100
1000
0000
1000
0001
0000
1000
0100
,
0000
0010
0000
0000
0100
0000
0010
0000
0100
1000
0000
0100
0010
0000
1000
0010
,
0000
1000
0000
0010
0100
0000
0010
0000
0100
0000
0010
0000
0100
0000
1000
0000
,
1010
0000
0000
0000
1010
0000
0000
0000
0100
0000
0010
0100
0010
0000
0010
0000
,
0100
0000
1000
0000
1001
0000
0000
0000
0001
1000
0000
1000
0010
0000
0100
0010
,
0000
0100
0000
0010
0000
0000
1000
0000
0001
0010
0000
0010
0001
0000
0100
0001
,
0000
0010
0000
0100
0010
0000
0100
0010
0000
0010
0000
1000
0001
0000
0010
0000
,
0011
0000
0000
0000
0011
0000
0000
0000
0010
0000
0100
0010
0100
0000
0100
0000
,
1010
0000
1001
0000
0001
1000
0100
0010
,
0110
0000
1100
0000
0001
0100
0001
0100
,
1001
0000
0000
0000
1010
0000
0000
0000
0010
0000
1000
0001
0010
0000
0100
0001
,
0000
1000
0010
0000
0001
0000
0100
0000
0010
0000
0100
0000
0010
0000
1000
0000
,
0001
0000
1000
0000
0100
0000
1000
0000
0000
0001
0000
0010
0100
0000
1000
0000
,
0001
0000
1000
0000
0001
0000
0010
0000
0000
0100
0000
0010
0100
0000
0010
0000
,
0001
1000
0001
0100
0001
0010
0100
1000
,
0100
0000
1001
0100
0001
0100
0001
0100
,
0010
0000
0100
0010
0000
0000
1000
0010
0000
1000
0000
0100
1000
0000
0010
0000
,
0110
0000
0100
0010
0001
0010
0001
1000
,
2002
3003
0000
0000
2020
3030
0000
0000
0220
0330
0000
0000
0220
0330
0000
0000
,
0202
0303
0000
0000
0001
0000
1000
0000
0001
0000
1000
0000
0010
0000
1000
0000
,
0110
0000
0000
0110
0000
0000
0001
0100
0000
0001
0000
0010
0100
0000
0010
0000
,
1001
0000
0100
1000
0100
1000
0010
0100
,
0010
1000
0001
1000
0100
1000
0100
0010
,
0100
0010
0001
0010
1001
0000
1001
0000
,
1100
0000
0100
0010
0100
0010
0001
0010
,
0100
1000
0100
0000
1001
0000
1001
0000
,
0011
0000
0100
0010
0100
1000
0100
1000
,
0010
0000
0000
0001
0000
0000
0010
0000
0101
0000
0000
0000
0110
0000
0000
0000
,
1001
0000
0001
1000
0001
0100
0010
0100
,
0010
0100
0001
0000
0011
0000
1001
0000
,
1100
0000
0100
1000
0001
0100
0001
0100
,
0001
0000
0010
0000
0100
0000
0000
0010
0000
0001
0000
0010
0001
0000
1000
0000
,
0001
0000
1000
0000
0100
0000
0000
1000
0000
0100
0000
0010
0100
0000
0010
0000
,
0011
0000
0100
1000
1100
0000
0100
0010
,
0001
0000
0010
0000
0001
0000
0010
0100
1000
0000
1000
0100
0000
0010
1000
0000
,
0110
0000
0001
0010
0011
0000
0100
1001
,
0000
0000
1010
0000
0100
0000
1010
0000
0010
0100
0000
0010
0100
0000
0100
0000
,
0101
0000
0001
0010
0011
0000
0100
0010
,
0100
1000
0100
1000
0001
1000
0001
0010
,
0001
1000
0001
1000
0001
1000
0001
1000
0001
0000
1000
0000
0001
0000
1000
0000
,
0001
0100
0001
0010
0001
0010
0001
0010
0100
0000
0010
0000
0100
0000
0010
0000
,
0001
0010
0001
0100
0001
0100
0001
0100
0001
0000
0010
0000
0001
0000
0010
0000
,
0100
0010
0100
0010
0100
0000
0100
0000
0100
0010
0100
0010
0100
0000
0100
0000
,
0100
0010
0100
1000
0100
1000
0001
0100
0010
0000
0001
0000
0010
0000
0001
0000
,
0001
1000
0001
1000
0001
0010
0001
0010
0100
0000
0010
0000
0100
0000
0010
0000
,
0100
0010
0100
0010
0100
0010
0100
0010
0100
0000
0010
0000
0100
0000
0010
0000
,
0100
1000
0001
1000
0010
1000
0010
1000
0010
1000
0001
1000
0001
1000
0001
1000
,
0010
0000
0100
0001
0010
0000
0100
0000
1001
0000
0000
1010
0000
0000
1000
0100
,
0010
0000
1000
0010
0001
0000
0100
0000
0101
0000
0000
0101
0000
0000
1000
0100
,
1000
0000
1000
0100
1000
0000
1000
0000
0110
0000
0000
0110
0000
0000
0100
0010
,
0001
0000
0100
0000
0010
0000
1000
0010
1000
0010
1000
0010
1000
0010
1000
0010
,
0001
0000
0100
0010
0001
0000
0100
0000
1010
0000
0000
1010
0000
0000
0010
0100
,
0010
0000
0010
0001
0100
0000
0001
0000
1001
0000
0000
1001
0000
0000
1000
0100
,
1000
0000
1000
0100
1000
0000
0010
0000
0110
0000
0000
0110
0000
0000
0010
1000
,
0001
0000
1000
0000
0001
0000
1000
0000
0010
1000
0010
1000
0010
0000
0100
0001
,
0010
0000
0100
1000
0001
0000
0100
0010
0000
0001
0000
0010
0001
0000
0100
1000
,
0010
0000
1000
0100
0010
0000
1000
0010
0000
0100
0000
0010
0001
0000
0100
0010
,
0001
0000
0010
1000
0001
0000
0010
0100
0000
0010
0000
0100
1000
0000
0001
1000
,
0100
0000
0010
0000
0001
0000
0010
0000
0001
0010
0001
0010
0001
0000
1000
0010
,
0001
0000
1000
0100
0001
0000
0100
0001
0000
1000
0000
0100
0010
0000
1000
0001
,
0100
0000
1000
0010
0001
0000
0010
0001
0000
0010
0000
0100
0001
0000
1000
0010
,
0001
0010
0001
0010
0001
0010
0001
0010
0001
0010
0100
0010
0100
0010
0100
0010
,
0100
0010
0100
0010
0100
0010
0100
0010
0001
1000
0001
1000
0001
1000
0001
1000
,
0002
0000
1000
0000
0000
0000
0000
1000
,
1000
0000
0000
0000
0000
0000
0000
0000
0000
1000
0000
1000
1000
0000
1000
0000
,
1000
0000
0000
0000
0000
0000
0000
1000
,
2000
0000
0000
0000
,
3003
0000
0000
0000
;
