#TITLE:Refrain;
#ARTIST:EBB;
#GENRE:BIG BEAT;
#CREDIT:B. M'Rey;
#MUSIC:refrain.ogg;
#BANNER:refrain-bn.png;
#BACKGROUND:refrain-bg.png;
#CDTITLE:./CDTITLES/Arcade Exclusive.PNG;
#SAMPLESTART:69.651;
#SAMPLELENGTH:11.480;
#OFFSET:-0.051;
#BPMS:0.000=125.000;

//--------------- dance-single - B. M'Rey ----------------
#NOTES:
     dance-single:
     B. M'Rey:
     Beginner:
     1:
     0,0,0,0,0:
0000
0000
0000
0000
,
0000
0000
0000
0000
,
0000
0000
0000
0000
,
0000
0000
0000
0000
,
0000
1000
0000
0001
,
0000
0010
0000
0000
,
0000
0100
0000
1000
,
0000
0100
0000
0000
,
0000
0010
0000
0100
,
0000
0010
0000
0000
,
0000
0001
0000
1000
,
0000
0010
0000
0000
,
0000
0100
0000
0010
,
0000
0100
0000
0000
,
0000
0001
0000
0010
,
0000
1000
0000
0000
,
0000
0100
0000
1000
,
0000
0100
0000
1000
,
0000
0100
0000
0010
,
0000
0100
0000
0010
,
0000
0001
0000
0010
,
0000
0001
0000
0010
,
0000
0100
0000
0010
,
0000
0100
0000
0010
,
0000
1000
0000
1000
,
0000
0100
0000
0100
,
0000
0010
0000
0010
,
0000
0001
0000
0001
,
0000
0010
0000
1000
,
0000
0100
0000
0001
,
0000
0010
0000
1000
,
0000
0100
0000
0001
,
0000
0010
0000
0010
,
0000
0100
1000
0100
,
0000
0010
0000
0001
,
0000
0100
0001
0100
,
0000
0010
1000
0010
,
0000
0010
0100
0000
,
0000
0001
0001
0010
,
0000
0100
1000
0000
,
0000
0010
0100
0010
,
0000
1000
1000
0000
,
0000
0001
0010
0001
,
0000
0001
0010
0000
,
0000
0100
0010
1000
,
0000
0001
0010
0000
,
0000
0100
0010
0100
,
0000
0001
1000
0000
,
0000
0110
0000
0000
;

//--------------- dance-single - B. M'Rey ----------------
#NOTES:
     dance-single:
     B. M'Rey:
     Easy:
     2:
     0,0,0,0,0:
0000
0000
0000
0000
,
0000
0000
0000
0000
,
0000
0000
0000
0000
,
0000
0000
0000
0000
,
0000
0001
0000
0001
,
1000
0100
0000
0100
,
0010
0001
0000
0001
,
1000
0100
0000
0001
,
0010
0001
0000
0100
,
1000
0100
0000
0001
,
0100
0010
0000
0001
,
1000
0100
0000
0010
,
0100
0010
0000
0001
,
0010
0001
0000
0100
,
1000
0100
0000
0001
,
0100
0001
0000
0010
,
1000
0010
0000
0001
,
0100
0001
0000
0100
,
0010
0100
0000
0010
,
1000
0100
0000
0001
,
0010
0001
0000
0100
,
0010
0100
0000
0001
,
0100
0001
0000
0010
,
1000
0001
0000
0010
,
0100
0010
0000
0001
,
1000
0100
0000
0100
,
0010
0001
0000
0001
,
0100
0010
0000
0100
,
1000
0010
0000
0010
,
0100
0001
0000
0100
,
0010
0001
0000
0010
,
0100
0010
0000
0001
,
1000
0001
0000
0010
,
0100
0001
0000
0001
,
0010
0100
0000
0100
,
1000
0010
0000
0010
,
1000
0001
1000
0010
,
0100
0010
0100
0000
,
1000
0001
0100
0010
,
1000
0010
1000
0000
,
0010
0001
0010
0100
,
1000
0100
1000
0000
,
0100
0010
1000
0001
,
1000
0001
0100
0000
,
0100
0010
1000
0001
,
1000
0001
0100
0010
,
0100
0010
1000
0001
,
1000
0001
0100
0010
,
0100
0110
0000
0000
;

//--------------- dance-single - B. M'Rey ----------------
#NOTES:
     dance-single:
     B. M'Rey:
     Medium:
     5:
     0,0,0,0,0:
0000
0000
0000
0000
,
0000
0000
0000
0000
,
0000
0000
0000
0000
,
0000
0000
0000
0000
,
0000
1000
0001
0010
,
0001
0010
0100
0000
0010
0000
1000
0000
,
0100
0010
0001
0000
0010
0000
0100
0000
,
0001
0010
1000
0000
0010
0000
0100
0000
,
1000
0100
1000
0000
0010
0000
0100
0000
,
0001
0010
0001
0000
0100
0000
0010
0000
,
1000
0100
1000
0000
0010
0000
0100
0000
,
0001
0010
0100
0000
0010
0000
1000
0100
,
0010
0000
0001
0000
0010
0000
0001
0010
,
0001
0000
0100
0000
0010
0000
1000
0100
,
0010
0000
0100
0000
0010
0000
0001
0010
,
0100
0000
1000
0000
0010
0000
0100
0010
,
0001
0000
1000
0000
0010
0000
0100
0010
,
0100
0010
0100
0000
0001
0000
0010
0000
,
1000
0100
1000
0000
0010
0000
0100
0000
,
0001
0010
1000
0000
0010
0000
0100
0000
,
0001
0100
0001
0100
0001
0000
0010
0000
,
1000
0000
0100
0010
0100
0000
1000
0000
,
0100
0000
0001
0010
1000
0000
0100
0000
,
1000
0000
0010
0100
0010
0000
1000
0000
,
0100
0000
0001
0010
0001
0000
1000
0100
,
1000
0010
0100
0000
0010
0000
0001
0010
,
0001
1000
0010
0000
0100
0000
0010
1000
,
0010
0100
0001
0000
0010
0000
0001
0100
,
0001
0100
0010
0000
1000
0000
0100
0010
,
0100
0010
0100
0000
1000
0000
0001
0010
,
0001
0010
0100
0000
0010
0000
1000
0100
,
1000
0100
1000
0000
0010
0000
0100
0010
,
0100
0000
0001
0000
0010
0000
1000
0100
,
1000
0100
1000
0000
0010
0000
0100
0000
,
0010
0100
0010
0000
0001
0000
0010
0000
,
0001
0100
0010
0000
1000
0000
0100
1000
,
0100
1001
0101
0110
,
0110
0000
1010
0000
0101
0000
0010
0100
,
0010
0101
0110
1010
,
1010
0000
0110
0000
0101
0000
0001
1000
,
0001
0110
0101
0110
,
0110
0000
1010
0000
0101
0000
0010
1000
,
0010
0110
1010
1001
,
1001
0000
0101
0000
0110
0000
0010
1000
,
0010
0110
0011
1010
,
1010
0000
0110
0000
0101
0000
0010
1000
,
0010
0110
0101
0110
,
0110
0000
1010
0000
0101
0000
0010
0100
,
0010
1001
0000
0000
;

//--------------- dance-single - B. M'Rey ----------------
#NOTES:
     dance-single:
     B. M'Rey:
     Hard:
     7:
     0,0,0,0,0:
0000
0000
0000
0000
,
0000
0000
0000
0000
,
0000
0000
0000
0000
,
0000
0000
0000
0000
,
0000
0000
0000
0000
1001
0000
0000
0000
1100
0000
0000
0000
0100
1000
0000
0100
,
0001
0000
0010
0000
0001
0000
0000
0000
0001
0000
1000
0010
1000
0000
0010
0100
,
0000
0000
1000
0000
0100
0000
0000
0000
0100
0000
0010
0001
0010
0000
0010
0001
,
0000
1000
0001
0000
0010
0000
0100
0000
,
0010
0000
0100
0000
0001
0000
0000
0010
0000
0000
0001
0000
0010
0100
0000
0000
,
0100
0000
1000
0000
0100
0000
0000
1000
0000
0000
0010
0000
0001
0010
0000
0000
,
0001
0000
0010
0000
0100
0000
0000
1000
0000
0000
0100
0000
0010
0001
0000
0000
,
0001
0000
0100
0000
0001
0000
0000
0100
0000
0000
0100
0000
0010
1000
0000
0000
,
0001
1000
0000
0000
1001
0000
0000
0000
0010
0000
0100
0000
0001
0000
0000
0000
,
0010
0100
0010
0000
0001
1000
0001
0000
,
0010
0100
0010
0000
0001
0100
0010
0000
,
0010
1000
0010
0000
0001
0100
0001
0000
,
0010
1000
1010
0000
0110
0000
0001
0100
,
0001
1000
1001
0000
1010
0000
0010
0100
,
0001
0100
0101
0000
1010
0000
0010
0100
,
0010
0100
0101
0000
1001
0000
0011
0000
,
0110
0000
0110
0000
0101
0000
0001
0100
,
0001
1000
1100
0000
1100
0000
0010
0100
,
0001
0100
0101
0000
1010
0000
0010
1000
,
0100
1000
0110
0000
0110
0000
0001
0010
,
0001
0100
0110
0000
0110
0000
0001
1000
,
0010
0100
0110
0000
1010
0000
0001
1000
,
0001
1000
0110
0000
0110
0000
0100
1000
,
0001
0100
0110
0000
0110
0000
0001
1000
,
0010
1000
1001
0000
0011
0000
0001
0100
,
0010
0100
0110
0000
1001
0000
0001
1000
,
0001
0100
0110
0000
0110
0000
0001
0010
,
0001
0010
0110
0000
1100
0000
0100
1000
,
0010
1000
0110
0000
0110
0000
0001
0010
,
0001
0010
1001
0000
1010
0000
0001
1000
,
0001
0100
0110
0000
0110
0000
0001
0010
,
0100
0010
0110
0000
1001
0000
0001
1000
,
0100
0000
1000
0000
0100
0000
0010
0000
0100
0000
0000
0000
0001
0000
0010
0001
,
0000
0001
0100
0000
0001
0000
0100
0000
0010
0000
0000
0000
0010
0000
1000
0000
,
0010
1000
0010
0000
0001
0000
1000
0000
0001
0000
0000
0000
0001
0000
0100
0010
,
0000
0010
0100
0000
0010
0000
1000
0000
0010
0000
0000
0000
0100
0000
1000
0100
,
0000
0100
0010
0000
0100
0000
0010
0000
0001
0000
0000
0000
0001
0000
0100
0010
,
0000
0010
0100
0000
0010
0000
0100
0000
0001
0000
0000
0000
0001
0000
1000
0000
,
1000
0001
0100
0000
0010
0000
0100
0000
0010
0000
0000
0000
0010
0000
1000
0100
,
0000
0100
1000
0000
0100
0000
0010
0000
0001
0000
0000
0000
0001
0000
0010
0000
,
0100
0000
1000
0000
0001
0000
1000
0000
0001
0000
1000
0010
0100
0000
0010
0100
,
0000
0001
0010
0000
0100
0000
1000
0000
0001
0000
1000
0001
1000
0000
1000
0100
,
0000
0100
0010
0000
0100
0000
0010
0000
0100
0000
1000
0001
0000
0001
1000
0000
,
0001
0000
1000
0010
1000
0000
0100
0000
0001
1000
0001
1000
0001
0100
0010
0100
,
0010
0100
0010
1000
0001
0000
0000
0000
0000
0000
0000
0000
0000
0000
0000
0000
;
