#TITLE:ROSES ARE RED;
#ARTIST:AQUA;
#GENRE:EUROPOP;
#CREDIT:B. M'Rey;
#MUSIC:ROSES ARE RED.ogg;
#BANNER:ROSES ARE RED-BN.png;
#BACKGROUND:ROSES ARE RED-BG.png;
#CDTITLE:./CDTITLES/ZIPMANIA BEST.PNG;
#SAMPLESTART:63.280;
#SAMPLELENGTH:12.000;
#OFFSET:-0.424;
#BPMS:0.000=140.022;

//--------------- dance-single - B. M'Rey ----------------
#NOTES:
     dance-single:
     B. M'Rey:
     Beginner:
     1:
     0.117001,0.215833,0.134896,0.057812,0,85,71,14,6,0,0,0.117001,0.215833,0.134896,0.057812,0,85,71,14,6,0,0:
0000
0000
0000
0000
,
0000
0000
0000
0000
,
0000
0000
0000
0000
,
0000
0000
0000
0000
,
0000
0000
0000
0000
,
0000
0000
0000
0000
,
0000
0000
0000
0000
,
0000
0000
0000
0000
,
0000
0000
0000
0000
,
0000
0000
0000
0000
,
0000
0000
0000
0000
,
0000
0000
0000
0000
,
0001
0000
0010
0000
,
0001
0000
0010
0000
,
0100
0000
0001
0000
,
0010
0000
0001
0000
,
0010
0000
0001
0000
,
0100
0000
0001
0000
,
0100
0000
0010
0000
,
0001
0000
0000
0000
,
0010
0000
0000
0000
,
0100
0000
0001
0000
,
0010
0000
0000
0000
,
0100
0000
0001
0000
,
0010
0000
0000
0000
,
0001
0000
0010
0000
,
0100
0000
0000
0000
,
0100
0000
0000
0000
,
0100
0000
0001
0000
,
0010
0000
0000
0000
,
0001
0000
0100
0000
,
0001
0000
0000
0000
,
0001
0000
0100
0000
,
0001
0000
0010
0000
,
0001
0000
0000
0000
,
1001
0000
0000
0000
,
0100
0000
0001
0000
,
0010
0000
1000
0000
,
0100
0000
0001
0000
,
0010
0000
0000
0000
,
1000
0000
0100
0000
,
0010
0000
0001
0000
,
0010
0000
1000
0000
,
0100
0000
0000
0000
,
1001
0000
0010
0000
,
1001
0000
0100
0000
,
1001
0000
0100
0000
,
0001
0000
0000
0000
,
0110
0000
0001
0000
,
0110
0000
0001
0000
,
1010
0000
0001
0000
,
0010
0000
0000
0000
,
0020
0000
0000
0000
,
0000
0000
0000
0000
,
0000
0000
0000
0000
,
0000
0000
0000
0000
,
0030
0000
0000
0000
;

//--------------- dance-single - B. M'Rey ----------------
#NOTES:
     dance-single:
     B. M'Rey:
     Easy:
     2:
     0.183073,0.323749,0.12526,0.077083,0,133,120,13,8,0,0,0.183073,0.323749,0.12526,0.077083,0,133,120,13,8,0,0:
0000
0000
0000
0000
,
0000
0000
0000
0000
,
0000
0000
0000
0000
,
0000
0000
0000
0000
,
0000
0000
0000
0000
,
0000
0000
0000
0000
,
0000
0000
0000
0000
,
0000
0000
0000
0000
,
0000
0000
0000
0000
,
0000
0000
0000
0000
,
0000
0000
0000
0000
,
1001
0000
0000
0000
,
0100
0000
0001
0000
,
0010
0000
0010
0000
,
0001
0000
0100
0000
,
0001
0000
0010
0000
,
0001
0000
0100
0000
,
0001
0000
0001
0000
,
0100
0000
0001
0000
,
0002
0000
0000
0000
,
0013
0100
0001
0000
,
0100
0010
0001
0000
,
0100
1000
0001
0000
,
0100
1000
0010
0000
,
0100
0000
0001
0000
,
0001
0000
0100
0000
,
0010
0100
0001
0000
,
0010
0100
0010
0000
,
0010
0000
0001
0000
,
1000
0000
0010
0000
,
0010
1000
0010
0100
,
0000
1000
0100
0000
,
0010
0000
0100
0000
,
1000
0000
0001
0010
,
0000
0010
0000
1000
,
0001
0000
0000
0000
,
0001
1000
0001
0000
,
0100
1000
0100
0000
,
0001
1000
0001
0000
,
0001
0000
0001
0000
,
0001
0100
0010
0000
,
0010
1000
0010
0000
,
0010
1000
0010
0000
,
0002
0000
0000
0000
,
0103
0010
0001
0000
,
0001
0010
0100
0000
,
0100
1000
0100
0000
,
0100
0000
0100
0000
,
0010
1000
0010
0000
,
0010
0100
0010
0000
,
0010
0100
0001
0000
,
0001
0000
0002
0000
,
0023
0000
0000
0000
,
0000
0000
0000
0000
,
0000
0000
0000
0000
,
0000
0000
0000
0000
,
0030
0000
0000
0000
;

//--------------- dance-single - B. M'Rey ----------------
#NOTES:
     dance-single:
     B. M'Rey:
     Medium:
     3:
     0.243638,0.329531,0.028906,0.048177,0,177,174,3,5,0,0,0.243638,0.329531,0.028906,0.048177,0,177,174,3,5,0,0:
0000
0000
0000
0000
,
0000
0000
0000
0000
,
0000
0000
0000
0000
,
0000
0000
0000
0000
,
0000
0000
0000
0000
,
0000
0000
0000
0000
,
0000
0000
0000
0000
,
0000
0000
0000
0000
,
2000
0000
0000
0000
,
0002
0000
0000
0000
,
0000
0000
0000
0000
,
3003
0000
0000
0000
,
0010
1000
0010
0100
,
0010
0100
0001
0100
,
0001
1000
0010
1000
,
0010
1000
0100
0010
,
0100
0010
0100
1000
,
0010
0100
0010
0100
,
0010
1000
0001
0100
,
0001
1000
0100
1000
,
0100
1000
0001
0100
,
1001
1001
1001
0000
,
0100
0001
0010
0001
,
0100
1000
0001
0010
0100
0000
0000
0000
,
0010
0100
0001
1000
,
0100
0010
0001
0000
,
0010
0100
0010
1000
,
0010
0000
0100
0000
0001
0000
0000
0010
,
0000
0100
0000
0001
0000
0100
0010
0001
,
0000
0010
0000
0001
0000
0010
0000
0010
,
1000
1000
1000
0100
,
0000
0010
0100
0010
0000
0100
1000
0000
,
1000
0100
1000
0010
,
1000
0000
0010
0000
0100
0001
0010
0000
,
0000
0001
0000
0010
1000
0000
0010
0000
,
0010
0000
0010
0000
0100
0001
0010
0000
,
0000
0010
0000
0010
1000
0000
0100
0000
,
0000
0100
0000
0100
1000
0000
0010
0000
,
0000
0001
0000
0100
0010
0000
1000
0000
,
0000
0001
0100
0000
1000
0000
1000
0001
,
0000
0001
0000
0100
1000
0000
0010
0000
,
0000
0010
0000
0100
0010
0000
1000
0000
,
0000
0001
0000
0001
0100
0000
0010
0000
,
1000
0000
0100
0000
0200
0000
0000
0310
,
0000
0001
0000
0010
0100
0000
1000
0010
,
0000
0001
0000
0010
0100
0000
0100
0001
,
0000
0001
0000
0001
0010
0000
1000
0100
,
0001
0000
0100
0000
0100
0000
0010
0001
,
0000
0001
0000
0100
1000
0000
0100
0001
,
0000
0001
0000
0001
1000
0000
1000
0001
,
0000
0001
0000
0100
0010
0000
0010
0001
,
0100
0000
0100
0001
0020
0000
0000
0000
,
2000
0000
0000
0000
,
0000
0000
0000
0000
,
0000
0000
0000
0000
,
0000
0000
0000
0000
,
0030
0000
0000
0000
,
3000
0000
0000
0000
;

//--------------- dance-single - B. M'Rey ----------------
#NOTES:
     dance-single:
     B. M'Rey:
     Hard:
     7:
     0.378533,0.5008,0.25052,0.077083,0,275,249,26,8,0,2,0.378533,0.5008,0.25052,0.077083,0,275,249,26,8,0,2:
0000
0000
0000
0000
,
0000
0000
0000
0000
,
0000
0000
0000
0000
,
0000
0000
0000
0000
,
0000
0000
0000
0000
,
0000
0000
0000
0000
,
0000
0000
0000
0000
,
0000
0000
0000
0000
,
0001
0000
0001
0100
0001
0000
0100
0000
,
0100
0000
0001
0100
0001
0000
0001
0000
,
0020
0000
0000
0000
,
0031
0000
0000
0000
,
0001
0010
0001
0000
0001
0000
0010
0000
,
0010
1000
0001
0000
0001
0000
0001
0000
,
0010
0100
0010
0000
0001
0000
0001
0000
,
0001
0010
0100
0000
0001
0000
0100
0000
,
0100
0010
0100
0000
0001
0000
0001
0000
,
0001
0010
0100
0000
0100
0000
0001
0000
,
0001
0010
0001
0000
0100
0000
0100
0000
,
0001
1000
0001
0000
0100
0000
0100
0000
,
0001
0000
0100
0010
0100
0000
0001
0000
,
0010
1000
0010
1000
0100
0000
0100
0000
,
0100
0000
0001
1000
0001
0000
0001
0010
,
0100
0010
0001
1000
0010
0000
0010
0000
,
0001
0000
0010
0100
0010
0000
0001
0000
,
0001
0010
0001
0100
0010
0000
0001
0000
,
0001
0010
0010
1000
,
1000
0010
0001
0100
0010
0000
0010
0100
,
0000
0010
0000
0010
0000
0010
0001
0100
,
0000
0100
0000
0100
0000
1000
0001
1000
,
0001
1000
0100
0010
0100
0010
0100
1000
,
0000
1000
0001
0010
0000
0010
0100
0000
,
0001
0100
0001
0100
0002
0000
0013
1000
,
0020
0000
0031
0100
0001
0100
0001
0000
,
0100
1000
0000
1000
0100
0010
0001
0100
,
0101
0000
0011
0000
0100
0010
0100
0000
,
1001
0000
1001
0000
0001
0010
0100
0000
,
0110
0000
0101
0000
0001
1000
0001
0000
,
0110
0000
0110
0000
0001
0010
0001
0000
,
0001
1000
0100
0010
0100
0010
0100
0000
,
1001
0000
1001
0000
0100
0010
0100
0000
,
1100
0000
1001
0000
0100
1000
0100
0000
,
0110
0000
1001
0000
0100
1000
0100
1000
,
0001
0000
0001
0010
0001
0000
0000
0110
,
0000
0110
0000
1000
0001
0100
0001
0101
,
0000
0110
0000
0010
0100
0010
0001
1001
,
0000
1010
0000
1000
0001
0010
0001
0000
,
0001
0100
0010
0100
0001
0100
0001
1001
,
0000
0110
0000
0100
0010
0100
0001
1001
,
0000
1001
0000
0010
0100
0010
0100
0011
,
0000
1100
0000
1000
0100
1000
0010
0100
,
0010
0000
0010
1000
0002
0000
0000
0000
,
0020
0000
0000
0030
0200
0000
0000
0000
,
2300
0000
0000
3200
0000
0300
0000
0000
,
0000
0000
0000
0000
,
0000
0000
0000
0000
,
1003
0000
0100
1000
0001
0000
0001
0000
,
0001
0000
0010
0100
0010
0000
0100
0000
;
