#VERSION:0.83;
#TITLE:REALIZE YOU;
#ARTIST:Nacky;
#GENRE:2STEP;
#CREDIT:B. M'Rey;
#MUSIC:REALIZE YOU.ogg;
#BANNER:REALIZE YOU.png;
#BACKGROUND:REALIZE YOU-bg.png;
#CDTITLE:./CDTITLES/DDR LEGACY.PNG;
#SAMPLESTART:14.230;
#SAMPLELENGTH:15;
#OFFSET:-0.150;
#BPMS:0=136.097;
#STOPS:29=0.110,29.250=0.110,29.5=0.110,29.750=0.110,156=0.110,156.250=0.110,156.5=0.110,156.750=0.110;

//--------------- dance-single - B. M'Rey ----------------
#NOTEDATA:;
#STEPSTYPE:dance-single;
#DESCRIPTION:B. M'Rey;
#DIFFICULTY:Beginner;
#METER:3;
#RADARVALUES:0,0,0,0,0;
#NOTES:
0000
0000
0000
0000
,
0000
0000
0000
0000
,
0000
0000
0000
0000
,
0000
0000
0000
0000
,
0000
0001
0000
1000
,
0000
0010
0000
0000
,
0000
0100
0000
0001
,
0000
1000
0000
0001
,
1000
0000
0000
0000
,
0010
0000
0100
0010
,
0001
0000
0000
0000
,
0100
0000
0000
0100
0100
0000
0000
0000
,
0010
0000
0000
0000
,
1000
0000
0001
0010
,
0100
0000
0000
0000
,
0001
0000
0000
0001
0001
0000
0000
0000
,
0100
0000
0000
0000
,
0010
0000
1000
0100
,
1000
0000
0000
0000
,
0100
0000
0000
0100
0100
0000
0000
0000
,
0010
0000
0000
0000
,
0001
0000
1000
0010
,
0100
0000
0000
0000
,
0010
0000
0000
0010
0010
0000
0000
0000
,
0001
0000
0001
0000
,
1000
0000
1000
0000
,
0010
0000
0010
0000
,
0100
0000
0000
0000
,
0010
0000
0010
0000
,
0001
0000
0001
0000
,
1000
0000
1000
0000
,
0010
0000
0000
0000
,
0100
0000
0000
0000
,
1000
0000
0000
0000
,
0001
0000
0000
0000
,
0100
0000
0000
0000
,
0010
0000
0000
0000
,
1000
0000
0000
0000
,
0001
0000
0000
0000
,
1001
0000
0000
0100
,
0000
0000
0000
0010
,
0000
0010
0010
0000
0000
0000
1000
0000
,
0000
0000
0000
0100
,
0000
0100
0100
0000
0000
0000
0001
0000
,
0000
0000
0000
1000
,
0000
1000
1000
0000
0000
0000
0010
0000
,
0000
0000
0000
0100
,
0000
0100
0100
0000
0000
0000
0010
0000
,
0000
0000
0000
0001
,
0000
0001
0001
0000
0000
0000
1000
0000
,
0000
0000
0000
0100
,
0000
0100
0100
0000
0000
0000
0010
0000
,
0000
0000
0000
1000
,
0000
1000
1000
0000
0000
0000
0001
0000
,
0000
0000
0000
0010
;

//--------------- dance-single - B. M'Rey ----------------
#NOTEDATA:;
#STEPSTYPE:dance-single;
#DESCRIPTION:B. M'Rey;
#DIFFICULTY:Easy;
#METER:5;
#RADARVALUES:0,0,0,0,0;
#NOTES:
0000
0000
0000
0000
,
0000
0000
0000
0000
,
0000
0000
0000
0000
,
0000
0000
0000
0000
,
0000
0001
0100
0010
,
1000
0001
0100
0010
,
1000
0010
1000
0010
,
0100
0002
1003
0100
,
1000
0000
0010
0100
,
0010
0000
0100
0010
,
1000
0000
0100
0000
,
0100
0000
0000
0100
0010
0000
0010
0000
,
1000
0000
0100
0001
,
0100
0001
0100
0010
,
1000
0000
0100
0000
,
1000
0000
0000
0001
1000
0000
0010
0000
,
0100
0000
1000
0001
,
1000
0000
1000
0010
,
0100
0000
1000
0000
,
0100
0000
0000
0001
0010
0000
0100
0000
,
0010
0000
1000
0100
,
1000
0010
0100
0001
,
0010
0000
0010
0000
,
1000
0000
0000
0010
1000
0000
0000
0000
,
0010
1000
0010
1000
,
0010
1000
0001
0100
,
0010
0100
0010
0100
,
0001
0010
0001
0010
,
0001
0100
0010
0100
,
0001
0100
0001
0010
,
0001
0100
0010
1000
,
0010
1000
0010
0100
,
0001
0000
1000
0000
,
0010
0000
0100
0000
,
1000
0000
0001
0000
,
1000
0000
0100
0000
,
0110
0000
1000
0000
,
0100
0000
0010
0000
,
0001
0000
0010
0000
,
2000
3100
0010
0100
,
0000
0001
1000
0100
,
0000
0110
0000
0100
,
0000
0010
0000
0100
,
0000
0110
0010
1100
,
0000
0001
0000
0100
,
0000
1100
0000
0100
,
0000
0001
1000
0010
,
0000
0110
0100
0110
,
0000
0001
0000
0010
,
0000
1010
0000
0010
,
0000
0001
0000
0010
,
0000
1001
1000
1010
,
0000
0001
0000
0010
,
0000
0110
0000
0110
,
0000
0001
0000
1001
;

//--------------- dance-single - B. M'Rey ----------------
#NOTEDATA:;
#STEPSTYPE:dance-single;
#DESCRIPTION:B. M'Rey;
#DIFFICULTY:Medium;
#METER:8;
#RADARVALUES:0,0,0,0,0;
#NOTES:
0000
0000
0000
0000
,
0000
0000
0000
0000
,
0000
0000
0000
0000
,
0000
0000
0000
0000
,
0000
0001
0010
0100
,
0001
0000
0001
0000
1000
0010
0100
0000
,
0010
1000
0010
0100
,
0001
0000
0000
0000
1000
0001
1000
0001
1000
0000
0000
0000
1001
0000
0000
0000
,
0110
0000
0001
0010
0100
0010
0000
1000
,
0010
0000
0100
0000
0001
0010
0001
0010
,
1000
0010
0100
0010
,
0001
0000
0000
0001
0001
0000
0010
1000
,
0010
0000
0100
0000
0010
0000
1000
0001
,
0100
0000
0010
0000
0001
0010
1000
0010
,
0100
0010
1000
0100
,
1000
0000
0000
1000
1000
0000
0010
0100
,
0001
0000
0010
0000
0100
0001
0000
0010
,
1000
0000
0010
0000
0100
0010
0100
0001
,
1000
0010
0100
1000
,
0001
0000
0000
0001
0001
0000
0010
0100
,
0001
0000
0010
0000
1000
0000
0010
0001
,
0100
0000
0001
0000
0010
1000
0001
0100
,
0010
1000
0001
0100
,
0010
0000
0000
0010
0010
0000
0000
0000
,
1000
0100
1000
0100
0010
0100
0010
0100
,
0001
0010
0100
1000
,
0010
0100
0010
0000
0001
0000
0010
0000
,
1000
0100
1000
0000
0010
0000
0100
0000
,
0001
0010
0001
0010
0100
0010
0100
1000
,
0100
0000
0010
0000
0100
0010
0001
0000
,
0010
0000
1000
0000
0100
0001
0010
0000
,
1000
0000
0010
0000
0100
0010
0100
0000
,
0001
1000
0010
0100
,
0010
0000
0000
0010
0010
0000
0000
0000
,
0100
0001
0010
1000
,
0100
0000
0000
0100
0100
0000
0000
0000
,
1000
0010
0100
0001
,
0010
0000
0000
0010
0010
0000
0001
0000
,
1000
0010
0100
0001
,
0010
0100
0010
0100
0010
0000
0000
0000
1001
0000
0000
0000
0011
0000
0000
0000
,
0100
0010
1000
0001
,
0001
0001
0100
0000
0010
0000
1000
0000
,
0100
1000
0010
0100
,
0100
0100
0100
0000
0010
0000
1001
0000
,
0010
1000
0100
0010
,
0010
0010
0010
0000
0001
0000
0100
0000
,
0010
1000
0100
1000
,
1000
1000
1000
0000
0010
0000
0110
0000
,
0001
0100
0010
0001
,
0001
0001
0001
0000
0100
0000
0010
0000
,
1000
0100
0010
0100
,
0100
0100
0100
0000
1000
0000
1010
0000
,
0100
0001
0100
0010
,
0010
0010
0010
0000
1000
0000
0101
0000
,
0100
0001
0100
0010
,
0000
0100
0100
0000
0000
0000
0000
0000
;

//--------------- dance-single - B. M'Rey ----------------
#NOTEDATA:;
#STEPSTYPE:dance-single;
#DESCRIPTION:B. M'Rey;
#DIFFICULTY:Hard;
#METER:12;
#RADARVALUES:0,0,0,0,0;
#NOTES:
0000
0000
0000
0000
,
0000
0000
0000
0000
,
0000
0000
0000
0000
,
0000
0000
0000
0000
,
0000
0000
1000
0000
0001
0000
0010
0100
,
0001
0000
1001
0000
0010
0100
0001
0000
,
0010
1000
0010
0000
0100
0000
0010
0000
,
0001
0000
0000
0000
1100
1010
0101
0110
1001
0000
0000
0000
1000
0001
1000
0001
,
1000
0000
0010
0000
0100
0001
0010
1000
,
0100
0000
0010
1000
0100
0001
0010
0100
,
0001
0000
0000
1000
0100
0000
0010
0000
0000
0010
0001
0000
0100
0010
0000
0000
,
1001
0000
0000
0000
0100
0000
0011
0000
1010
0000
0000
0000
0100
0010
0100
0010
,
0100
0000
0001
0000
0010
0100
0001
1000
,
0010
0000
0100
0010
0100
0001
1000
0010
,
0100
0000
0010
0001
0000
0000
0010
0000
1000
0100
0000
0000
0001
0010
0000
0000
,
0110
0000
0000
0000
1000
0000
0011
0000
0110
0000
0000
0000
0001
0010
0001
0010
,
0001
0000
1000
0000
0010
0100
0010
0001
,
1000
0000
0010
0100
0010
1000
0010
0100
,
0001
0000
1000
0100
0000
0000
0010
0000
0000
0000
0001
0010
0000
0100
1000
0000
,
0110
0000
0000
0000
0001
0000
1100
0000
0110
0000
0000
0000
0001
0100
0001
0100
,
0001
0000
0010
0000
1000
0010
0100
0001
,
0010
0000
1000
0010
0100
0010
0001
0010
,
1000
0000
0010
0001
0000
0000
0100
0000
0000
0000
1000
0001
0000
1000
0001
0000
,
1001
0000
0010
0101
1001
0000
0010
0000
,
0001
0000
1000
0000
0010
0000
1000
0000
0010
1000
0000
0010
0001
0000
0100
0000
,
0001
0100
0001
1000
0100
1000
0100
1000
,
0001
0100
0001
0100
0001
1000
0100
1000
,
0100
1000
0001
0010
0001
0010
0001
0100
,
0010
0000
0100
0000
0010
0000
1000
0000
0010
1000
0000
1000
0001
0000
1000
0000
,
0010
0100
0010
0100
0010
1000
0001
0100
,
0010
1000
0001
0010
0001
1000
0001
1000
,
0010
1000
0010
0100
0010
0100
0001
0100
,
0001
0100
0010
1000
,
1001
0000
0010
0110
1100
0000
1000
0100
,
0010
0100
0001
0010
,
0101
0000
0100
0011
0101
0000
0010
1000
,
0100
1000
0001
0100
,
0011
0000
0010
0011
1001
0000
1000
0010
,
0100
1000
0001
0010
,
0110
1100
0011
1100
0101
0000
0000
0000
1000
0001
1000
0001
1000
0000
0100
0000
,
0010
0000
1000
0100
1000
0001
1010
0000
,
0100
1001
1010
0000
1000
0000
0100
0010
,
0100
0001
0100
0010
1000
0001
0110
0000
,
1000
1001
1100
0000
1000
0100
0011
0000
,
1000
0000
1000
0100
1000
0000
0101
0000
,
0100
1010
1001
0000
0010
0100
1000
0001
,
0010
0100
1000
0010
1000
0001
0110
0000
,
1000
0011
0110
0000
0010
0001
1010
0000
,
0100
0000
0010
0100
1000
0000
1100
0000
,
0010
1100
1001
0000
0010
0000
1000
0010
,
1000
0100
1000
0010
0100
0010
0101
0000
,
0010
0110
0011
0000
0010
0001
0110
0000
,
1000
0000
0010
0100
1000
0000
1010
0000
,
0100
1001
1010
0000
0100
0001
1001
0000
,
0010
1000
0100
1001
,
0000
1001
1001
0000
0000
0000
0000
0000
;
