#TITLE:PARANOiA INFINiTY;
#ARTIST:XX;
#GENRE:JUNGLE TECHNO;
#CREDIT:B. M'Rey;
#MUSIC:PARANOiA INFINiTY.ogg;
#BANNER:PARANOiA INFINiTY.png;
#BACKGROUND:PARANOiA INFINiTY-bg.png;
#CDTITLE:./CDTITLES/DDR LEGACY.PNG;
#SAMPLESTART:88.961;
#SAMPLELENGTH:12.000;
#OFFSET:-0.030;
#BPMS:0=345,64=172.5,68=345,196=220.001,260=120.001,292=999.010,294=100.001,294.5=50.001,295=25.001,295.250=345,384=172.5,388=345,452=172.5,468=345;
#STOPS:295.250=2.240;
#DISPLAYBPM:*;

//--------------- dance-single - B. M'Rey ----------------
#NOTES:
     dance-single:
     B. M'Rey:
     Beginner:
     3:
     0.214156,0.439269,0.017431,0.069725,0,172,170,2,8,0,0,0.214156,0.439269,0.017431,0.069725,0,172,170,2,8,0,0:
0000
0000
0000
0000
,
0000
0000
0000
0000
,
0000
0000
0000
0000
,
0000
0000
0000
0000
,
1000
0000
0000
0000
,
0010
0000
0000
0000
,
0100
0000
0000
0000
,
0001
0000
0010
0000
,
0100
0000
0000
0000
,
1000
0000
0000
0000
,
0001
0000
0000
0000
,
0010
0000
0000
0000
,
0100
0000
0000
0000
,
0001
0000
0000
0000
,
1000
0000
0000
0000
,
0010
0000
0100
0000
,
0020
0000
0000
0000
,
1030
0000
0000
0000
,
0001
0000
0000
0000
,
0100
0000
0000
0000
,
0010
0000
0000
0000
,
1000
0000
0000
0000
,
0001
0000
0000
0000
,
0100
0000
0000
0000
,
0002
0000
0000
0000
,
0103
0000
0000
0000
,
0010
0000
0000
0000
,
0001
0000
0000
0000
,
1000
0000
0000
0000
,
0010
0000
0000
0000
,
0100
0000
0000
0000
,
0001
0000
0000
0000
,
2000
0000
0000
0000
,
3100
0000
0000
0000
,
0010
0000
0000
0000
,
1000
0000
0000
0000
,
0001
0000
0000
0000
,
0010
0000
0000
0000
,
0001
0000
0000
0000
,
0100
0000
0000
0000
,
0020
0000
0000
0000
,
1030
0000
0000
0000
,
0100
0000
0000
0000
,
0001
0000
0000
0000
,
0010
0000
0000
0000
,
0001
0000
0000
0000
,
0100
0000
0000
0000
,
0010
0000
0000
0000
,
2000
0000
0000
0000
,
3001
0001
0001
0000
,
0100
0100
0100
0000
,
0010
0010
0010
0010
,
0010
0000
0000
0010
0000
0000
0000
0000
,
0001
0001
0001
0000
,
0100
0100
0100
0000
,
1000
1000
1000
0000
,
0010
0010
0010
0000
,
0001
0001
0001
0000
,
0100
0100
0100
0000
,
0010
0010
0010
0010
,
0010
0000
0000
0010
0000
0000
0000
0000
,
1000
1000
1000
0000
,
0001
0001
0001
0000
,
0010
0010
0010
0000
,
0100
0100
0100
0000
,
0010
0000
0001
0000
,
1000
0000
0010
0000
,
1000
1000
1000
0001
,
1000
0000
0000
0000
,
0100
0000
0010
0000
,
1000
0000
0001
0000
,
0010
0010
0010
0100
,
0010
0000
0000
0000
,
1001
0000
0000
0000
,
1000
0000
0000
0000
,
0010
0000
0000
0000
,
0100
0000
0000
0000
,
0001
0000
0000
0000
,
0010
0000
0000
0000
,
0001
0000
0000
0000
,
0100
0000
0000
0000
,
0010
0000
0000
0000
,
1000
0000
0000
0000
,
0001
0000
0000
0000
,
0010
0000
0000
0000
,
0001
0000
0000
0000
,
0100
0000
0000
0000
,
0010
0000
0000
0000
,
1000
0000
0000
0000
,
0010
0000
0000
0000
,
0100
0000
0000
0000
,
0001
0000
0000
0000
,
0010
0000
0000
0000
,
0001
0000
0000
0000
,
0100
0000
0000
0000
,
0010
0000
0000
0000
,
2000
0000
0000
0000
,
3001
0000
0000
0000
,
0010
0000
0000
0000
,
0001
0000
0000
0000
,
0100
0000
0000
0000
,
0010
0000
0000
0000
,
1000
0000
0000
0000
,
0001
0000
0000
0000
,
0010
0000
0000
0000
,
0100
0000
0000
0000
,
0001
0000
0000
0000
,
0010
0000
0000
0000
,
1000
0000
0000
0000
,
0100
0000
0000
0000
,
0001
0000
0000
0000
,
0010
0000
0000
0000
,
0001
0000
0000
0000
,
0100
0000
0001
0000
,
0100
0000
1000
0000
,
0010
0000
0100
0000
,
0001
0000
0010
0000
,
1000
0000
0000
0000
,
0100
0000
0000
0000
,
0001
0000
0000
0000
,
0010
0000
0000
0000
,
0001
0000
0000
0000
,
0100
0000
0000
0000
,
0010
0000
0000
0000
,
0100
0000
0000
0000
,
2002
0000
0000
0000
,
3003
0000
0000
0000
;

//--------------- dance-single - B. M'Rey ----------------
#NOTES:
     dance-single:
     B. M'Rey:
     Easy:
     7:
     0.388469,0.713813,0.043578,0.095872,0,312,307,5,11,0,0,0.388469,0.713813,0.043578,0.095872,0,312,307,5,11,0,0:
0000
0000
0000
0000
,
0000
0000
0000
0000
,
0000
0000
0000
0000
,
0000
0000
0000
0000
,
1000
0000
0010
0000
,
0100
0000
0001
0000
,
0010
0000
0100
0000
,
0001
0000
1000
0000
,
0010
0000
0100
0000
,
0001
0000
0010
0000
,
0001
0000
1000
0000
,
0010
0000
0100
0000
,
0001
0000
0010
0000
,
0001
0000
1000
0000
,
0010
0000
0100
0000
,
0010
0100
0010
0100
,
0020
0000
0000
0000
,
0031
0000
0100
0000
,
0010
0000
1000
0000
,
0010
0000
0100
0000
,
0001
0000
0010
0000
,
0001
0000
0100
0000
,
0010
0000
1000
0000
,
0001
0000
0100
0000
,
0120
0100
0100
0100
,
0130
0000
0001
0000
,
0100
0000
0010
0000
,
1000
0000
0001
0000
,
0100
0000
0010
0000
,
0100
0000
0001
0000
,
0010
0000
1000
0000
,
0010
0000
0001
0000
,
0210
0010
0010
0010
,
0310
0000
0001
0000
,
0010
0000
0001
0000
,
0100
0000
0010
0000
,
1000
0000
0100
0000
,
0001
0000
0010
0000
,
0100
0000
1000
0000
,
0001
0000
0010
0000
,
1002
1000
1000
1000
,
1003
0000
0010
0000
,
0100
0000
0001
0000
,
1000
0000
0010
0000
,
0100
0000
0001
0000
,
0010
0000
1000
0000
,
0010
0000
0100
0000
,
0010
0000
0001
0000
,
2001
0001
0001
0001
,
3001
0010
1000
0100
,
0010
1000
0001
0010
,
0100
0010
1000
0100
,
0001
0000
0000
0001
0000
0000
0000
0000
,
0010
1000
0100
0001
,
0010
1000
0010
0100
,
0001
0010
1000
0010
,
0100
0000
0000
0000
,
0010
1000
0100
0001
,
0010
0100
0001
1000
,
0010
0100
0001
0100
,
0010
0000
0000
0010
0000
0000
0000
0000
,
0001
1000
0010
0100
,
0001
0010
1000
0100
,
0001
0010
1000
0010
,
0100
0010
0100
0010
0100
0010
0100
0010
,
0200
0010
0010
0010
,
1000
1000
1000
1000
,
0001
0001
0001
0001
,
0010
0010
0010
0010
,
0302
0010
0010
0010
,
0100
0100
0100
0100
,
1000
1000
1000
1000
,
0010
0010
0010
0010
,
2000
0000
0000
0000
0000
0000
0000
0000
0000
0000
0000
0000
0000
3003
0000
0000
,
0010
0000
0100
0000
,
0010
0000
1000
0000
,
0001
0000
0100
0000
,
0010
0000
1000
0000
,
0001
0000
0010
0000
,
0001
0000
0100
0000
,
0010
1000
0010
1000
,
0010
1000
0010
1000
,
0010
0000
0001
0000
,
0100
0000
0010
0000
,
0001
0000
1000
0000
,
0010
0000
0100
0000
,
0001
0000
0010
0000
,
0001
0000
0100
0000
,
0010
0000
1000
0000
,
0100
0000
1000
0000
,
0001
0000
0010
0000
,
0001
0000
0100
0000
,
0010
0000
1000
0000
,
0100
0000
1000
0000
,
0001
0000
0100
0000
,
0010
0000
0100
0000
,
0020
0000
0000
0000
,
1030
0000
0010
0000
,
0100
0000
0001
0000
,
0010
0000
1000
0000
,
0010
0000
0100
0000
,
0001
0000
0010
0000
,
0100
0000
0001
0000
,
1000
0000
0010
0000
,
0100
0000
0001
0000
,
0010
0000
0001
0000
,
0100
0000
0010
0000
,
1000
0000
0010
0000
,
0100
0000
0001
0000
,
0010
0000
0001
0000
,
0100
0000
0010
0000
,
1000
0000
0010
0000
,
0100
0000
0001
0000
,
0100
0010
1000
0001
,
0100
0010
1000
0010
,
0100
0001
0010
0100
,
0001
1000
0010
0100
,
0010
0000
1000
0000
,
0001
0000
0010
0000
,
0001
0000
0100
0000
,
0010
0000
1000
0000
,
0100
0000
1000
0000
,
0001
0000
0010
0000
,
0100
0000
0001
0000
,
0100
0000
0010
0000
,
2002
0000
0000
0000
,
3003
0000
0000
0000
;

//--------------- dance-single - B. M'Rey ----------------
#NOTES:
     dance-single:
     B. M'Rey:
     Medium:
     10:
     0.52543,0.940856,0.148166,0.183029,0,422,405,17,21,0,0,0.52543,0.940856,0.148166,0.183029,0,422,405,17,21,0,0:
0000
0000
0000
0000
,
0000
0000
0000
0000
,
0000
0000
0000
0000
,
0000
0000
0000
0000
,
1000
0000
0010
0000
,
0100
0000
0001
0000
,
0010
0000
1000
0000
,
0010
1000
0001
0010
,
0100
0000
0001
0000
,
1000
0000
0010
0000
,
0100
0000
0001
0000
,
0010
1000
0100
0001
,
0010
0000
0100
0000
,
1000
0000
0001
0000
,
0010
0000
0100
0000
,
0001
0010
1000
0001
,
0200
0000
0000
0000
,
0310
0001
1000
0000
,
0010
0100
0001
0000
,
0010
1000
0100
0000
,
0001
0010
0100
0000
,
0010
1000
0100
0000
,
0001
0010
0100
0000
,
0010
1000
0100
0000
,
0011
0110
1100
0110
,
0010
0100
0010
0000
,
0001
1000
0010
0000
,
0100
0010
1000
0000
,
0001
0100
0010
0000
,
0010
0001
0100
0000
,
0010
1000
0100
0000
,
0001
0010
0100
0000
,
1100
0110
0011
0110
,
1001
0010
0100
0000
,
0001
1000
0010
0000
,
0100
0010
1000
0000
,
0001
0100
0010
0000
,
0100
0010
1000
0000
,
0001
0010
0001
0000
,
0010
0100
0001
0000
,
1100
0110
0011
1001
,
0110
0001
1000
0000
,
0010
0100
0010
0000
,
1000
0001
0100
0000
,
0010
1000
0100
0000
,
0001
0100
0010
0000
,
0010
1000
0100
0000
,
0001
1000
0001
1000
0001
1000
0001
1000
,
0001
1000
0001
1000
0001
1000
0001
1000
,
0001
1000
0010
0100
,
0001
0010
1000
0100
,
0001
1000
0010
0100
0001
0010
1000
0100
,
0010
0000
0000
0010
0000
0000
0000
0000
,
0001
1000
0010
0100
,
0001
0010
1000
0010
,
0100
0001
1000
0010
0100
0001
0010
0100
,
0010
0000
0000
0010
0000
0000
0000
0000
,
0001
1000
0010
0100
,
0001
0010
1000
0010
,
0100
0001
0010
1000
0100
0010
1000
0010
,
0100
0000
0000
0100
0000
0000
0000
0000
,
0001
0010
0100
0001
,
1000
0010
0100
0001
,
0010
1000
0001
0100
0010
0001
1000
0010
,
0100
0000
0000
0100
0000
0000
0000
0000
,
2000
3200
0320
0032
,
0023
0230
2300
3200
,
0301
0000
0110
0000
0001
1000
0001
1000
,
0001
0100
0010
1000
,
0002
0023
0230
2300
,
3200
0320
0032
0023
,
0130
0000
1001
0000
0001
1000
0001
1000
,
0001
0100
0010
1000
,
0002
0000
0000
0000
0000
0000
0000
0000
0000
0000
0000
0000
0000
0000
0000
0000
0000
0000
0000
0000
0000
0000
0000
0000
0000
0000
0000
0000
0000
0000
0000
0000
0000
0000
0000
0000
0000
0000
0000
0000
0000
0000
0000
0000
0000
0000
0000
0000
0000
0000
0000
0000
0000
0003
0000
0000
0000
0000
0000
0000
0000
0000
0000
0000
,
0100
0000
0001
0000
,
0010
0000
1000
0000
,
0010
0000
0100
0000
,
0001
0000
0010
0000
,
1000
0000
0010
0000
,
0100
0000
0001
0000
,
0010
0000
0100
0000
,
0001
1000
0001
1000
0001
1000
0001
1000
,
0001
0010
1000
0000
,
0010
0100
0010
0000
,
0001
1000
0010
0000
,
0100
0010
1000
0000
,
0001
0100
0010
0000
,
1000
0010
0100
0000
,
0001
0100
0010
0000
,
1000
0100
1000
0000
,
0001
0100
0010
0000
,
0010
0100
1000
0000
,
0010
0001
0100
0000
,
1000
0100
0010
0000
,
0100
0010
0001
0000
,
0010
1000
0100
0000
,
0002
0000
0000
0000
,
0013
1000
0100
0000
,
0001
0010
0100
0000
,
1000
0010
0100
0000
,
0001
0100
0010
0000
,
1000
0100
1000
0000
,
0001
0100
0010
0000
,
1000
0100
1000
0000
,
0001
0010
0100
0000
,
0010
1000
0100
0000
,
0010
0100
1000
0000
,
0001
0100
0010
0000
,
1000
0010
0100
0000
,
0001
0010
0100
0000
,
0010
1000
0100
0000
,
0001
0010
0100
0000
,
0010
0100
0010
0000
,
1000
0001
0010
0001
,
0100
0010
1000
0010
,
0100
0001
0100
0010
,
1000
0010
0100
0001
,
0100
0010
1000
0000
,
0010
0100
0010
0000
,
1000
0001
1000
0000
,
0010
0100
0001
0000
,
0010
0100
1000
0000
,
0010
0100
0001
0000
,
0010
1000
0010
0001
,
0100
0010
1000
0010
,
2002
0000
0000
0000
,
0000
0000
0000
0000
,
3003
0000
0000
0000
;

//--------------- dance-single - B. M'Rey ----------------
#NOTES:
     dance-single:
     B. M'Rey:
     Hard:
     10:
     0.908919,0.9962,0.148166,0.174313,0,730,713,17,20,0,0,0.908919,0.9962,0.148166,0.174313,0,730,713,17,20,0,0:
0000
0000
0000
0000
,
0000
0000
0000
0000
,
0000
0000
0000
0000
,
0000
0000
0000
0000
,
1000
0001
0010
0100
,
0010
1000
0100
0001
,
0010
0100
1000
0010
,
0100
0010
0100
0010
0100
0010
0100
0010
,
0100
0001
0010
0001
,
1000
0010
0100
0010
,
0001
1000
0100
0010
,
1000
0100
0001
0000
0010
0100
0001
0000
,
0100
0010
0001
1000
,
0010
0100
0001
0010
,
0001
0100
0010
0100
,
1000
0001
1000
0001
1000
0001
1000
0001
,
2000
0000
0000
0000
,
3001
0010
0001
0010
0100
0000
1000
0000
,
0010
0100
0010
0100
0010
0000
0001
0000
,
0001
1000
0001
1000
0001
0000
0010
0000
,
0100
0010
0100
0010
0100
0000
1000
0000
,
0001
0010
0001
0010
0001
0000
0100
0000
,
0010
0001
0010
0001
0010
0000
0010
0000
,
0100
0010
0100
0010
0100
0000
0010
0000
,
1100
0110
0011
0110
,
1000
0001
1000
0001
1000
0000
1000
0000
,
0010
0100
0010
0100
0010
0000
0001
0000
,
0010
1000
0010
1000
0010
0000
0100
0000
,
0001
0010
0001
0010
0001
0000
0010
0000
,
1000
0001
1000
0001
1000
0000
0010
0000
,
0100
0010
0100
0010
0100
0000
0001
0000
,
0010
1000
0010
1000
0010
0000
1000
0000
,
1001
0110
0101
1010
,
0100
0010
0100
0010
0100
0000
0001
0000
,
0010
0001
0010
0001
0010
0000
0100
0000
,
0010
1000
0010
1000
0010
0000
0100
0000
,
0010
0100
0010
0100
0010
0000
1000
0000
,
0001
0100
0001
0100
0001
0000
0010
0000
,
0001
1000
0001
1000
0001
0000
0010
0000
,
0010
1000
0010
1000
0010
0000
0100
0000
,
0011
0110
1001
0110
,
0100
0001
0100
0001
0100
0000
0010
0000
,
0010
1000
0010
1000
0010
0000
0100
0000
,
0010
0100
0010
0100
0010
0000
0001
0000
,
1000
0001
1000
0001
1000
0000
0010
0000
,
0010
1000
0010
1000
0010
0000
0100
0000
,
0001
0100
0001
0100
0001
0000
0010
0000
,
1000
0001
0100
0010
1000
0001
0100
0010
,
1000
0001
0100
0010
1000
0001
0100
0010
,
1000
0100
0001
0010
0100
0000
0010
0000
,
0001
1000
0010
0100
0010
0000
1000
0000
,
0001
0010
0001
0100
0010
0100
1000
0100
,
0001
0010
0000
0010
0000
0000
0000
0000
,
0100
1000
0001
0100
0010
0000
0100
0000
,
0001
1000
0010
0100
0010
0000
0100
0000
,
0001
1000
0010
0100
0001
0010
0100
1000
,
0100
0010
0000
0010
0000
0000
0000
0000
,
0001
1000
0010
0100
0010
0000
0001
0000
,
0010
1000
0100
0001
0100
0000
0010
0000
,
0100
1000
0100
0001
0010
0100
0010
1000
,
0100
0001
0000
0001
0000
0000
0000
0000
,
0100
0001
0010
0100
1000
0100
0001
0000
,
0010
1000
0100
0001
0010
0000
0100
0000
,
0010
1000
0001
0100
0010
1000
0100
0001
,
0010
0100
0001
0010
1000
0100
0001
0100
,
0020
0032
0203
0320
,
2030
3200
0302
0023
,
0130
0100
1000
1000
0100
0100
1000
1000
,
0100
0100
0010
0010
0001
0001
0010
0010
,
0200
2300
3002
0023
,
0032
0203
0320
2030
,
3100
0100
0010
0010
0001
0001
0010
0010
,
0100
0100
1000
1000
0100
0100
0010
0010
,
0002
0000
0000
0000
0000
0000
0000
0000
0000
0000
0000
0000
0000
0000
0000
0000
0000
0000
0000
0000
0000
0000
0000
0000
0000
0000
0000
0000
0000
0000
0000
0000
0000
0000
0000
0000
0000
0000
0000
0000
0000
0000
0000
0000
0000
0000
0000
0000
0000
0000
0000
0000
0000
0003
0000
0000
0000
0000
0000
0000
0000
0000
0000
0000
,
1000
0000
0100
0000
0001
0010
0100
0010
,
0001
0000
0010
0000
1000
0010
0100
0010
,
0001
0000
0010
0000
1000
0001
0100
0010
,
0100
0000
0001
0000
0100
0010
0001
1000
,
0010
0000
0100
0000
0001
0010
1000
0100
,
0001
0000
0010
0000
1000
0100
0001
0010
,
0100
0010
0001
1000
0010
0100
0001
0010
,
0100
1000
0010
0100
0010
0001
0010
1000
,
0001
0010
0001
0010
0100
0000
1000
0000
,
0010
0100
0010
0100
0010
0000
0001
0000
,
0001
1000
0001
1000
0001
0000
0010
0000
,
0100
0010
0100
0010
0100
0000
1000
0000
,
0001
0010
0001
0010
0001
0000
0100
0000
,
0010
0001
0010
0001
0010
0000
0010
0000
,
0100
0010
0100
0010
0100
0000
0010
0000
,
1000
0100
1000
0100
0010
0000
0001
0000
,
0100
0010
0100
0010
0100
0000
1000
0000
,
1000
0001
1000
0001
1000
0000
0100
0000
,
0010
0100
0010
0100
0010
0000
0001
0000
,
1000
0100
1000
0100
1000
0000
0010
0000
,
0100
1000
0100
1000
0100
0000
0100
0000
,
0010
0100
0010
0100
0010
0000
0100
0000
,
0011
0110
1100
0110
,
0001
1000
0001
1000
0001
0000
0001
0000
,
0100
0010
0100
0010
0100
0000
1000
0000
,
0100
0001
0100
0001
0100
0000
0010
0000
,
1000
0100
1000
0100
1000
0000
0100
0000
,
0001
1000
0001
1000
0001
0000
0100
0000
,
0010
0100
0010
0100
0010
0000
1000
0000
,
0100
0001
0100
0001
0100
0000
0001
0000
,
1000
0001
1000
0001
1000
0000
1000
0000
,
0010
0100
0010
0100
0010
0000
0001
0000
,
0010
1000
0010
1000
0010
0000
0100
0000
,
0001
0010
0001
0010
0001
0000
0010
0000
,
1000
0001
1000
0001
1000
0000
0010
0000
,
0100
0010
0100
0010
0100
0000
0001
0000
,
0010
1000
0010
1000
0010
0000
1000
0000
,
1000
0001
0100
0010
1000
0001
0100
0010
,
1000
0001
0100
0010
1000
0001
0100
0010
,
1000
0100
0001
0010
0100
0000
0010
0000
,
0001
1000
0010
0100
0010
0000
1000
0000
,
0001
0010
0001
0100
0010
0000
1000
0000
,
0001
0010
0100
0010
1000
0000
0010
0000
,
0100
0010
0100
0010
0100
0000
0001
0000
,
0010
0001
0010
0001
0010
0000
0100
0000
,
0010
1000
0010
1000
0010
0000
0100
0000
,
0010
0100
0010
0100
0010
0000
1000
0000
,
0001
0100
0001
0100
0001
0000
0010
0000
,
0001
1000
0001
1000
0001
0000
0010
0000
,
1000
0001
0100
0010
1000
0001
0100
0010
,
1000
0001
0100
0010
1000
0001
0100
0010
,
2002
0000
0000
0000
,
0000
0000
0000
0000
,
3003
0000
0000
0000
;
