#VERSION:0.83;
#TITLE:PARADISE;
#ARTIST:BAMBEE;
#GENRE:BUBBLEGUM DANCE;
#CREDIT:B. M'Rey;
#MUSIC:PARADISE.ogg;
#BANNER:PARADISE-bn.png;
#BACKGROUND:PARADISE-bg.png;
#CDTITLE:./CDTITLES/DANCEMANIA SPRINGS 2.PNG;
#SAMPLESTART:63.060;
#SAMPLELENGTH:15.000;
#OFFSET:-0.445;
#BPMS:0.000=134.945;

//--------------- dance-single - B. M'Rey ----------------
#NOTEDATA:;
#STEPSTYPE:dance-single;
#DESCRIPTION:B. M'Rey;
#DIFFICULTY:Beginner;
#METER:2;
#RADARVALUES:0.108,0.16,0.041,0.072,0;
#NOTES:
0000
0000
0000
0000
,
0000
0000
0000
0000
,
0000
0000
0000
0000
,
0000
0000
0000
1000
,
0000
0000
0000
0000
,
0000
0000
0000
0001
,
0000
0000
0000
0000
,
0000
0000
0000
1001
,
0000
0000
0000
1000
,
0000
0010
0000
0001
,
0000
0100
0000
0020
,
0000
0000
0000
0030
,
0000
0100
0000
0001
,
0000
0010
0000
0100
,
0000
0000
0000
0100
,
0000
0010
0000
0002
,
0000
0000
0000
0013
,
0000
0000
0000
1000
,
0000
0000
0000
0100
,
0000
0000
0000
0001
,
0000
0000
0000
0010
,
0000
0000
0000
0100
,
0000
0000
0000
0010
,
0000
0000
0000
1000
,
0000
0000
0000
0001
,
0000
0100
0000
0010
,
0000
1000
0000
0001
,
0000
0010
0000
0001
,
0000
0200
0000
0301
,
0000
0010
0000
0100
,
0000
0000
0000
1000
,
0000
0100
0000
0001
,
0000
0000
0000
0110
,
0000
0000
0000
1000
,
0000
0001
0000
0010
,
0000
0100
0000
0020
,
0000
0000
0000
0030
,
0000
0001
0000
1000
,
0000
0010
0000
0100
,
0000
0000
0000
0010
,
0000
0001
0000
0100
,
0000
0000
0000
0110
,
0000
0001
0000
0100
,
0000
0010
0000
0200
,
0000
0000
0000
0300
,
0000
0001
0000
0010
,
0000
1000
0000
0010
,
0000
0000
0000
0100
,
0000
0001
0000
0010
,
0000
0000
0000
2002
,
0000
0000
0000
0000
,
0000
0000
0000
3003
;

//--------------- dance-single - B. M'Rey ----------------
#NOTEDATA:;
#STEPSTYPE:dance-single;
#DESCRIPTION:B. M'Rey;
#DIFFICULTY:Easy;
#METER:4;
#RADARVALUES:0.108,0.16,0.041,0.072,0;
#NOTES:
0000
0000
0000
0000
,
0000
0000
0000
0000
,
0000
0000
0000
0000
,
0000
0000
0000
0000
,
1000
0000
0001
0000
,
1000
0000
0001
0000
,
1000
0000
0001
0000
,
0000
0000
0000
1001
,
0000
0000
0000
0010
,
0000
0100
0100
1000
,
0000
0001
0010
0002
,
0000
0203
0000
1300
,
0000
0010
0010
0100
,
0000
0001
0001
1000
,
0000
0000
0010
0100
,
0002
0000
2003
0000
,
0000
3000
0000
0010
,
0100
0001
0010
0001
,
1000
0000
0000
0010
,
0100
1000
0100
1000
,
0000
0000
0000
0001
,
0010
0001
0100
0010
,
1000
0000
0000
0100
,
0000
1000
0100
0000
,
0000
0000
0000
0001
,
0010
0000
0001
0000
0000
0100
0000
0000
,
0000
0000
0010
1000
,
0000
0100
1000
0010
,
0000
0000
0000
0100
,
0001
0010
1000
0000
,
0000
0000
0100
0001
,
0000
1000
0000
0010
,
0000
0100
0100
1001
,
0000
0000
0000
0010
,
0000
0100
0100
1000
,
0000
0001
0010
0002
,
0000
0203
0000
1300
,
0000
0010
0010
0100
,
0000
0001
0001
1000
,
0000
0000
0010
0100
,
0002
0000
2003
0000
,
0000
3001
0000
1001
,
0000
0100
0100
0001
,
0000
1000
0010
2000
,
0000
3200
0000
0301
,
0000
0010
0010
0100
,
0000
1000
1000
0001
,
0000
0000
0010
0100
,
2000
0000
3002
0000
,
0003
0000
0000
2002
,
0000
0000
0000
0000
,
0000
0000
0000
0000
,
3003
0000
0000
0000
;

//--------------- dance-single - B. M'Rey ----------------
#NOTEDATA:;
#STEPSTYPE:dance-single;
#DESCRIPTION:B. M'Rey;
#DIFFICULTY:Medium;
#METER:6;
#RADARVALUES:0.235,0.267,0.031,0.164,0;
#NOTES:
0000
0000
0000
0000
,
0000
0000
0000
0000
,
0000
0000
0000
0000
,
0000
0000
0000
0001
,
1000
0100
1000
0100
,
0010
0100
0010
0001
,
0010
0001
1000
0001
,
1000
0010
1000
0110
,
0000
0000
0000
0001
,
0010
0001
0010
0000
0010
0000
0001
0000
,
0000
0000
0010
1000
0010
0000
0020
0000
,
0000
0000
0032
0000
0000
0103
0000
0100
,
0000
0010
0100
0000
0100
0000
0001
0000
,
0010
0000
0001
0010
0001
0000
0001
0000
,
1000
0000
0010
1000
0100
0000
0010
0000
,
1000
0001
0010
0002
,
0000
2003
0000
3010
,
1000
0010
0100
0010
,
0100
0001
0100
0001
,
1000
0001
1000
0100
,
1000
0001
0100
0001
,
0100
0001
1000
0010
,
1000
0010
0100
0010
,
0100
0001
0100
0001
,
1000
0001
1000
1010
,
1000
0000
0010
0100
0000
0020
0000
0000
,
0030
0000
0001
0010
0000
0001
0000
0000
,
1000
0001
1000
0000
1000
0200
0000
2300
,
0000
3100
0010
0100
,
0010
0001
0010
0000
0001
1000
0000
1000
,
0000
0000
0001
1000
0010
0000
0100
0000
,
0010
0100
0000
0010
0100
0000
0010
0000
,
1000
0000
0001
1000
0001
1000
0110
0000
,
0000
0000
0000
0001
,
0010
0001
0010
0000
0010
0000
0001
0000
,
0000
0000
0010
1000
0010
0000
0020
0000
,
0000
0000
0032
0000
0000
0103
0000
0100
,
0000
0010
0100
0000
0100
0000
0001
0000
,
0010
0000
0001
0010
0001
0000
0001
0000
,
1000
0000
0010
1000
0100
0000
0010
0000
,
1000
0001
0010
0001
,
0100
0010
0100
0000
1000
0000
1000
0000
,
0010
1000
0010
0000
0010
0000
1000
0000
,
0000
0000
0010
0001
0010
0000
0020
0000
,
0000
0000
2030
0000
0000
3100
0000
0100
,
0000
0010
0100
0000
0100
0000
1000
0000
,
0010
0000
1000
0010
1000
0000
1000
0000
,
0001
0000
0010
0001
0100
0000
0010
0000
,
0001
1000
0010
1000
,
0100
0010
0100
0000
0001
0000
0020
0000
,
0000
0000
0000
0000
,
0000
0000
0000
0000
,
0030
0000
0000
0000
;

//--------------- dance-single - B. M'Rey ----------------
#NOTEDATA:;
#STEPSTYPE:dance-single;
#DESCRIPTION:B. M'Rey;
#DIFFICULTY:Hard;
#METER:8;
#RADARVALUES:0.397,0.454,0.021,0.246,0.015;
#NOTES:
0000
0000
0000
0000
,
0000
0000
0000
0000
,
0000
0000
0000
0000
,
0000
0000
0000
0100
,
1000
0001
0010
0001
,
0010
0001
0100
0010
,
1000
0010
1000
0010
,
0100
0001
0010
1001
,
0000
0000
0000
0000
0000
0000
0001
1000
,
0001
0000
0100
1000
0100
0000
0001
0000
,
0001
0000
0100
1000
0010
0000
0100
1000
,
0002
0000
0020
0000
0003
0130
0000
0010
,
0000
0000
1000
0000
0100
0000
0000
0001
0000
0000
1000
0000
0001
0000
0100
0000
,
0001
0000
0010
0100
0010
0000
0001
0000
,
0100
0000
0100
0010
0001
0000
0001
0100
,
0001
1000
0000
1000
0010
1000
0000
0010
,
0000
0010
0100
0000
0100
0000
0001
1000
,
0001
1000
0000
0100
0000
0100
0010
0000
,
0001
0010
0000
0010
0001
1000
0100
0000
,
0100
1000
0000
0100
0000
1000
0001
1000
,
0010
0000
0010
0100
0010
0000
0001
0100
,
0000
0010
0000
0100
0000
0010
0001
0100
,
0001
1000
0000
1000
0100
0000
0100
0010
,
0000
0010
0001
0010
0000
0100
0000
0100
,
0010
0000
0001
1000
0001
0000
1001
0000
,
0100
0010
0100
0010
0000
0100
0000
1000
,
0100
0000
0010
0100
0010
2000
0000
3000
,
0001
1000
0010
0100
0010
0200
0000
2300
,
0000
3000
0100
0010
0100
1000
0010
0000
,
0001
0010
0001
0010
0100
1000
0000
2000
,
0000
3000
0001
0010
0001
0000
0100
0000
,
0100
0010
0000
0010
0100
0000
0001
0000
,
0010
0000
0010
1000
0010
0100
1001
0000
,
0000
0000
0000
0000
0000
0000
0001
1000
,
0001
0000
0100
1000
0100
0000
0001
0000
,
0001
0000
0100
1000
0010
0000
0100
1000
,
0002
0000
0020
0000
0003
0130
0000
0010
,
0000
0000
1000
0000
0100
0000
0000
0001
0000
0000
1000
0000
0001
0000
0100
0000
,
0001
0000
0010
0100
0010
0000
0001
0000
,
0100
0000
0100
0010
0001
0000
0001
0100
,
0001
1000
0000
1000
0010
1000
0000
0010
,
0000
0000
1000
0000
0001
0000
0000
0001
0000
0000
0100
0000
0010
0000
0000
0000
,
0010
1000
0010
0000
0100
1000
0100
0000
,
0001
0000
0001
0010
0100
0000
0200
0000
,
0000
0000
0002
0300
0000
0103
0000
0100
,
0000
0000
1000
0000
0010
0000
0000
0001
0000
0000
0100
0000
0001
0000
0000
0000
,
0010
1000
0010
0000
0010
0100
0001
0000
,
0010
0000
0010
1000
0100
0000
0010
1000
,
0100
0010
0000
0010
0001
0010
0000
0100
,
0000
0100
0010
0100
0010
1000
0020
0000
,
0000
0000
0000
0000
,
0000
0000
0000
0000
,
0030
0000
0000
0000
;
