#TITLE:PAIN IN MY HEART;
#ARTIST:CARINA;
#GENRE:BUBBLEGUM DANCE;
#CREDIT:B. M'Rey;
#MUSIC:PAIN IN MY HEART.ogg;
#BANNER:PAIN IN MY HEART-bn.png;
#BACKGROUND:PAIN IN MY HEART-bg.png;
#CDTITLE:./CDTITLES/DANCEMANIA SPRINGS 2.PNG;
#SAMPLESTART:49.626;
#SAMPLELENGTH:12.000;
#OFFSET:-0.097;
#BPMS:0.000=132.043;

//--------------- dance-single - B. M'Rey ----------------
#NOTES:
     dance-single:
     B. M'Rey:
     Beginner:
     1:
     0.071,0.081,0.011,0,0:
0000
0000
0000
0000
,
0000
0000
0000
0000
,
0000
0000
0000
0000
,
0000
0000
0000
0000
,
0000
1000
0000
0000
,
0000
0010
0000
0000
,
0000
0100
0000
0000
,
0000
0001
0000
0000
,
0000
0010
0000
0000
,
0000
1000
0000
0000
,
0000
0100
0000
0000
,
0000
1000
0000
0000
,
0000
0001
0000
0000
,
0000
0010
0000
0000
,
0000
0001
0000
0000
,
0000
0010
0000
0000
,
0000
0100
0000
0000
,
0000
0001
0000
0000
,
0000
0100
0000
0000
,
0000
0001
0000
0000
,
0000
1000
0000
0000
,
0000
0010
0000
0000
,
0000
1000
0000
0000
,
0000
0000
0000
0000
,
0000
1000
0000
0000
,
0000
0001
0000
0000
,
0000
0010
0000
0000
,
0000
0100
0000
0000
,
0000
0001
0000
0000
,
0000
1000
0000
0000
,
0000
0010
0000
0000
,
0000
0100
0000
0000
,
0000
0001
0000
0000
,
0000
0010
0000
0000
,
0000
0001
0000
0000
,
0000
1000
0000
0000
,
0000
0010
0000
0000
,
0000
0100
0000
0000
,
0000
0001
0000
0000
,
0000
0010
0000
0000
,
0000
0001
0000
0000
,
0000
1000
0000
0000
,
0000
0010
0000
0000
,
0000
0100
0000
0000
,
0000
1000
0000
0000
,
0000
0001
0000
0000
,
0000
0010
0000
0000
,
0000
0001
0000
0000
,
0000
0100
0000
0000
,
0000
0010
0000
0000
,
0000
0100
0000
0000
,
0000
1000
0000
0000
,
0000
0001
0000
0000
,
0000
0100
0000
0000
,
0000
0010
0000
0000
,
0000
1000
0000
0000
;

//--------------- dance-single - B. M'Rey ----------------
#NOTES:
     dance-single:
     B. M'Rey:
     Easy:
     1:
     0.116,0.164,0.095,0.105,0:
0000
0000
0000
0000
,
0000
0000
0000
0000
,
0000
0000
0000
0000
,
0000
0000
0000
0000
,
0000
1000
0000
0000
,
0000
0001
0000
0000
,
0000
0100
0000
0000
,
0000
0010
0000
0000
,
0000
0110
0000
0001
,
0000
1000
0000
0010
,
0000
0200
0000
0000
,
0000
0300
0000
0000
,
0000
0001
0000
0100
,
0000
0010
0000
1000
,
0000
0002
0000
0000
,
0000
0003
0000
0000
,
0000
1000
0000
0001
,
0000
0100
0000
0010
,
0000
0001
0000
1000
,
0000
0010
0000
0100
,
0000
0001
0000
0010
,
0000
0100
0000
0001
,
0000
1000
0000
0000
,
0000
0000
0000
0000
,
0000
1000
0000
0001
,
0000
0010
0000
0100
,
0000
0001
0000
1000
,
0000
0010
0000
0000
,
0000
0110
0000
0001
,
0000
1001
0000
0100
,
0000
0020
0000
0000
,
0000
0030
0000
0000
,
0000
1001
0000
0010
,
0000
0110
0000
0001
,
0000
0200
0000
0000
,
0000
0300
0000
0000
,
0000
0011
0000
0010
,
0000
0101
0000
0010
,
0000
0200
0000
0000
,
0000
0300
0000
0000
,
0000
1010
0000
1000
,
0000
1100
0000
1000
,
0000
0020
0000
0000
,
0000
0030
0000
0000
,
0001
2000
0000
0000
,
3000
0000
0000
0000
,
1000
0002
0000
0000
,
0003
0000
0000
0000
,
0100
0020
0000
0000
,
0030
0000
0000
0000
,
0010
0200
0000
0000
,
0000
0300
0000
0000
,
0001
1000
0000
0000
,
0000
0000
0000
0000
,
0100
0010
0000
0000
;

//--------------- dance-single - B. M'Rey ----------------
#NOTES:
     dance-single:
     B. M'Rey:
     Medium:
     3:
     0.184,0.247,0.137,0.116,0:
0000
0000
0000
0000
,
0000
0000
0000
0000
,
0000
0000
0000
0000
,
0000
0000
0000
0000
,
0000
1000
0001
0010
,
0100
1000
0100
0001
,
0010
0001
0000
1000
,
0000
0010
0000
0000
,
0000
1001
0000
0100
,
0000
1001
0001
0010
,
0100
2000
0000
0000
,
0000
3000
0000
0000
,
0000
1001
0000
0010
,
0000
1001
1000
0100
,
0010
0002
0000
0000
,
0000
0003
0000
0000
,
0010
1000
0001
0010
,
0100
1000
0001
0010
,
0100
0001
1000
0010
,
0100
0001
0100
0010
,
1000
0001
0010
0100
,
0000
0010
1000
0100
,
0001
0010
0001
2000
,
0000
3000
0000
0000
0000
0000
0000
0000
,
0000
0001
1000
0010
,
0000
0010
1000
0100
,
0000
0001
0010
0100
,
0000
1001
0000
0000
,
0000
1001
0000
0100
,
0000
1001
1000
0100
,
0010
0002
0000
0000
,
0000
0003
0000
0000
,
0000
1001
0000
0001
,
0000
1001
0001
0010
,
0100
2000
0000
0000
,
0000
3000
0000
0000
,
0000
0110
0000
1000
,
0000
0110
0010
1000
,
0001
0200
0000
0000
,
0000
0300
0000
0000
,
0000
0110
0000
0001
,
0000
0110
0100
0001
,
1000
0020
0000
0000
,
0000
0030
0000
0000
,
1000
0100
0010
0100
,
0010
0100
1000
0001
,
1000
0001
0100
0001
,
1000
0100
1000
0100
,
1000
0010
0100
0010
,
0100
0010
1000
0001
,
1000
0001
1000
0100
,
0010
0100
0010
0100
,
1000
0001
1000
0010
,
1000
0010
0100
0010
,
1000
0001
1000
0001
,
0100
0001
0100
0010
,
0100
0000
0000
0000
;

//--------------- dance-single - B. M'Rey ----------------
#NOTES:
     dance-single:
     B. M'Rey:
     Hard:
     5:
     0.339,0.356,0.032,0.105,0:
0000
0000
0000
0000
,
0000
0000
0000
0000
,
0000
0000
0000
0000
,
0000
0000
0000
0000
,
0000
0000
1000
0000
1000
0100
0000
0001
,
0000
0001
0000
0001
0010
0100
0010
0001
,
0100
0001
0100
0000
1000
0010
0000
0010
,
0000
0100
0000
0001
0010
0001
0010
0000
,
0100
0000
0010
0000
0100
0000
0010
0001
,
0010
0000
1010
0000
1000
0100
1000
0010
,
0100
0200
1000
0010
,
0320
0000
1030
0000
0000
0001
0100
0001
,
0100
0000
1000
0000
0010
0000
0100
0001
,
1000
0000
1001
0000
0100
0010
0100
0000
,
0100
2000
0001
0010
,
3200
0310
0100
0010
,
0010
0100
0010
0000
1000
0000
0010
0000
,
1000
0001
1000
0001
0100
0010
0000
0010
,
0100
0000
0001
1000
0001
0000
1000
0000
,
0010
0000
1000
0010
0100
0001
0000
0001
,
0010
0001
0000
0100
1000
0100
0000
0000
,
0010
0000
0010
0001
0000
0100
0000
0001
,
1000
0010
0000
0010
0100
0010
0000
0001
,
0000
0010
1000
0000
0100
0000
0001
0000
,
0100
0000
1000
0001
0000
0010
1000
0000
,
0100
0000
0100
0001
0000
0100
1000
0000
,
1000
0000
0100
0001
1000
0010
1000
0020
,
0000
0000
0031
0000
0010
0000
1000
0100
,
1000
0000
0010
0000
0001
0000
0010
0001
,
0100
0000
0110
0000
0100
0010
1000
0010
,
1000
2000
0001
0001
,
3020
0000
0130
0000
0000
0001
0100
0001
,
0010
0000
0010
0000
0100
0000
1000
0100
,
1000
0000
1001
0000
0000
0001
0010
0100
,
0010
0000
2000
0000
0100
0000
3010
0100
,
0010
0101
0101
0011
,
0110
0000
0110
0000
1000
0000
0010
0001
,
1000
0000
1001
0000
0010
0100
0010
0100
,
0010
2000
0010
0010
,
3020
0000
0130
0000
0000
0010
1000
0100
,
1000
0000
0100
0000
0010
0000
0100
0001
,
1000
0000
1100
0000
0000
0001
0010
0001
,
0010
2000
0010
0010
,
3020
0230
0000
1300
,
1000
0000
1000
0000
0100
0010
0000
0001
,
0000
0010
0000
0001
0010
0100
0010
0100
,
1000
0100
1000
0000
1000
0001
0000
0010
,
0000
0001
0000
0010
0100
0010
0100
0001
,
1000
0001
0100
0000
0100
0010
0000
0100
,
0000
1000
0000
0100
1000
0001
0100
0001
,
0100
0001
1000
0000
1000
0100
0000
0001
,
0000
0100
0000
0001
0010
0100
1000
0100
,
0010
0100
0010
0000
0010
0001
0000
0010
,
0000
0100
0000
0100
1000
0100
0010
0001
,
0010
0001
0010
0000
1000
0100
0000
0100
,
0000
0001
0000
0001
0010
0100
1000
0100
,
1000
0100
0010
0000
0000
0000
0000
0000
;
