#TITLE:OVER THE CLOUDS;
#SUBTITLE:-Flying Grind mix-;
#ARTIST:Lala Moore Remixed by Flying Grind;
#GENRE:HOUSE;
#MUSIC:OVER THE CLOUDS -Flying Grind mix-.ogg;
#BANNER:OVER THE CLOUDS -Flying Grind mix--bn.png;
#BACKGROUND:OVER THE CLOUDS -Flying Grind mix--bg.png;
#CDTITLE:./CDTITLES/beatmania IIDX.png;
#SAMPLESTART:62.420;
#SAMPLELENGTH:12.000;
#OFFSET:-0.076;
#BPMS:0.000=128.000;

//--------------- dance-single - B. M'Rey ----------------
#NOTES:
     dance-single:
     B. M'Rey:
     Beginner:
     1:
     0,0,0,0,0:
0000
0000
0000
0000
,
0000
0000
0000
0000
,
0000
0000
0000
0000
,
0000
0000
0000
0000
,
0000
0000
0000
0000
,
0000
1000
0000
0000
,
0000
0010
0000
0000
,
0000
0100
0000
0000
,
0000
0001
0000
0010
,
0000
0001
0000
0000
,
0000
0100
0000
0010
,
0000
1000
0000
0000
,
0000
0100
0000
0010
,
0000
0001
0000
0000
,
0000
1000
0000
0010
,
0000
0100
0000
0000
,
0000
0001
0000
1000
,
0000
0010
0000
0001
,
0000
0100
0000
0001
,
0000
1000
0000
0010
,
0000
0100
0000
0010
,
0000
0001
0000
1000
,
0000
0010
0000
0100
,
0000
0001
0000
1000
,
0000
0100
0000
1000
,
0000
0010
0000
0100
,
0000
1000
0000
0001
,
0000
0010
0000
0001
,
0000
0100
0000
0010
,
0100
0010
0000
0000
,
0000
1000
0000
0000
,
0000
0001
0000
0000
,
0000
0100
0000
0000
,
0000
0001
0000
1000
,
0000
0010
0000
0100
,
0000
0001
0000
1000
,
0000
0010
0000
0100
,
0000
0010
0000
1000
,
0000
0100
0000
1000
,
0000
0010
0000
0100
,
0000
0001
0000
0010
,
0000
1001
0000
0010
,
0000
0100
0000
0010
,
0000
0001
0000
1000
,
0000
0010
0000
0100
,
0000
0010
0000
1000
,
0000
0001
0000
0010
,
0000
0001
0000
0100
,
0000
0010
0000
0100
,
0000
1000
0000
0000
,
0000
0001
0000
0000
,
0000
0100
0000
0000
,
0000
0010
0000
0000
,
0000
1001
0000
0000
,
0000
0010
0000
0000
,
0000
0100
0000
0000
,
0000
0010
0000
0000
,
0000
0001
0000
0000
;

//--------------- dance-single - B. M'Rey ----------------
#NOTES:
     dance-single:
     B. M'Rey:
     Easy:
     2:
     0,0,0,0,0:
0000
0000
0000
0000
,
0000
0000
0000
0000
,
0000
0000
0000
0000
,
0000
0000
0000
0000
,
0000
0000
0000
0000
,
0000
1000
0000
0010
,
0000
0100
0000
0001
,
0000
0010
0000
0001
,
0000
0100
0000
0010
,
0000
1000
0000
0010
,
0100
0001
0000
0010
,
1000
0100
0000
0010
,
1000
0001
0000
0010
,
0000
0100
0000
0010
,
0001
1000
0000
0010
,
0100
0010
0000
1000
,
0100
1000
0000
0010
,
0000
0001
0100
0010
,
1000
0100
0000
0010
,
0001
0010
0000
0100
,
0000
1000
0010
0100
,
0000
0001
0010
0001
,
0010
1000
0000
0010
,
0100
0001
0000
0010
,
1000
0100
0000
0010
,
1000
1001
0000
0010
,
0100
0001
0010
1000
,
0000
0100
0010
1000
,
0001
0010
0000
0001
,
0100
0010
0000
1000
,
0100
1000
0000
0010
,
0100
0000
0001
0000
0000
0000
0000
0010
,
0000
0100
0000
1000
,
0000
0010
0000
0100
,
0010
1000
0000
0001
,
0010
0001
0000
0100
,
0010
1000
0000
0010
,
0100
0001
0000
0010
,
0001
0100
0000
0010
,
1000
0001
0000
0010
,
0100
0001
0000
1000
,
0010
0100
0000
0010
,
1000
0001
0000
0001
,
0010
0100
0000
0010
,
0100
0010
0000
1000
,
0100
1000
0000
0001
,
0010
0001
0000
0010
,
0100
0010
0000
1000
,
0100
1000
0000
0001
,
0010
0001
0000
0100
,
0000
0010
0000
1000
,
0000
0001
0000
0010
,
0000
0001
0000
0100
,
0000
0010
0000
1000
,
0000
0001
0000
0010
,
0000
0001
0000
0100
,
0000
0010
0000
1000
,
0000
2002
0000
0000
,
3003
0000
0000
0000
;

//--------------- dance-single - B. M'Rey ----------------
#NOTES:
     dance-single:
     B. M'Rey:
     Medium:
     4:
     0,0,0,0,0:
0000
0000
0000
0000
,
0000
0000
0000
0000
,
0000
0000
0000
0000
,
0000
0000
0000
0000
,
0000
0000
0000
0000
,
0000
0001
0000
0000
,
0010
0000
1000
0000
0000
0000
0000
0100
,
0000
0010
0001
1000
,
0010
0000
0100
0000
0000
0001
0000
0000
,
0000
0010
1000
0100
,
1000
1001
0000
0010
,
0100
0001
0000
0010
,
0100
1000
0010
0100
,
0010
1001
0000
0010
,
0100
0001
0000
0010
,
1000
0100
0010
1000
,
0001
0010
0001
0100
,
0010
0001
1000
0100
,
0010
0100
0000
0001
,
0010
0001
1000
0001
,
1000
0100
0010
0001
,
1000
0001
0000
0001
,
0010
0100
1000
0001
,
1000
0000
0100
0000
0000
0010
0000
0000
,
1000
0100
1000
0010
,
1000
0010
0100
0001
,
0100
0010
0100
0010
,
0000
0100
1000
0010
,
0100
0010
1000
0001
,
1000
0001
0000
0010
,
0000
0100
0000
0010
,
0100
0001
0000
1000
,
0000
0001
0000
0010
,
1000
0001
1000
0001
,
0100
0001
0100
0010
,
0100
0010
1000
0100
,
0010
0001
0100
0001
,
0010
0001
1000
0100
,
1000
0100
1000
0010
,
0100
0010
1000
0001
,
1000
0100
1000
0001
,
0100
0001
1000
0100
,
1000
0010
0100
0010
,
0100
0001
0010
0001
,
1000
0001
0100
0010
,
0100
0010
0100
0001
,
1000
0001
0010
0100
,
0010
0100
1000
0010
,
0100
0001
0100
0001
,
0100
0001
0000
0010
,
0100
0010
0000
1000
,
0001
0010
0000
0100
,
0010
0000
1000
0000
0000
0001
0000
0000
,
0010
0100
0010
1000
,
0010
0100
0010
1000
,
0100
0001
0010
0001
,
0100
0010
1000
0100
,
1000
2002
0000
0000
,
3003
0000
0000
0000
;

//--------------- dance-single - B. M'Rey ----------------
#NOTES:
     dance-single:
     B. M'Rey:
     Hard:
     6:
     0,0,0,0,0:
0000
0000
0000
0000
,
0000
0000
0000
0000
,
0000
0000
0000
0000
,
0000
0000
0000
0000
,
0000
0000
0000
0000
,
0000
0000
0001
0000
0010
0000
0001
0010
,
0000
0100
1000
0000
0010
0000
0100
0010
,
0000
0100
1000
0000
0001
0000
0010
0000
,
0001
0000
0100
0000
0010
0100
0010
0000
,
1000
0000
0010
0000
0010
0100
0001
0000
,
0001
1000
0100
0000
0100
0000
0010
0000
,
0100
0010
0100
0000
0001
1000
0010
0000
,
0100
0000
0001
0000
0010
0100
0010
0000
,
0001
0010
0100
0000
1000
0000
0001
0000
,
0010
0100
1000
0000
0010
0100
0001
0000
,
0001
0010
0100
0000
0010
0000
0001
0000
,
0010
0000
0010
0100
0010
0000
0100
1000
,
0001
0000
0100
0000
0010
0000
0100
0010
,
0001
1000
0001
0000
0001
0010
0100
0010
,
0100
0010
0001
0000
0100
0000
0100
1000
,
0001
0000
0010
0000
0001
0000
0000
0010
0000
0000
0100
0000
0000
0000
1000
0000
,
0001
1000
0001
0000
0001
0100
0010
0100
,
0010
0100
0001
0000
0100
0000
0001
1000
,
0100
1000
0100
0000
0010
0100
0000
1000
,
0100
0000
0100
0000
0010
0000
0001
0010
,
0100
0000
1000
0000
0010
0000
0000
0010
0000
0000
0100
0000
0001
0000
0100
0000
,
0010
0000
1000
0000
0100
0000
0000
0001
0000
0000
1000
0000
0000
0000
0100
0000
,
0000
0000
0001
0000
0010
0000
0000
1000
0000
0000
0100
0000
0000
0000
0100
0000
,
0001
0000
1000
0000
0001
0000
0000
0100
0000
0000
1000
0000
0010
0000
1000
0000
,
0100
0010
0200
0000
0000
0000
0320
0000
,
0000
2030
0000
0000
0000
3000
0000
0011
,
0000
0000
1001
0000
0000
2100
0000
0000
0000
0000
0000
0000
0200
0000
0000
0000
,
0000
0000
0000
0000
0000
0000
0000
0000
0000
0000
0000
0000
0000
0000
0000
0000
0000
0000
0000
0000
0000
0000
0000
3300
0000
0000
0000
0000
0000
0000
0000
0000
0000
0000
0000
0000
0000
0000
0000
0000
0000
0000
0000
0000
0000
0000
0000
0000
0001
0000
0000
0000
0000
0000
0000
0000
0000
0000
0000
0000
0000
0000
0000
0000
0000
0000
0000
0000
0000
0000
0000
0000
0000
0000
0000
0000
0000
0000
0000
0000
0000
0000
0000
0000
0000
0000
0000
0000
0000
0000
0000
0000
0000
0000
0000
0000
1000
0000
0000
0000
0000
0000
0000
0000
0000
0000
0000
0000
0000
0000
0000
0000
0000
0000
0000
0000
0000
0000
0000
0000
0000
0000
0000
0000
0000
0000
0000
0000
0000
0000
0000
0000
0000
0000
0000
0000
0000
0000
0000
0000
0000
0000
0000
0000
0010
0000
0000
0000
0000
0000
0000
0000
0000
0000
0000
0000
0000
0000
0000
0000
0000
0000
0000
0000
0000
0000
0000
0000
1000
0000
0000
0000
0000
0000
0000
0000
0000
0000
0000
0000
0000
0000
0000
0000
0000
0000
0000
0000
0000
0000
0000
0000
,
0001
0000
0001
0000
0001
0010
0001
1000
,
0000
0100
0000
0000
0010
0000
0100
0000
0001
0000
0010
0000
0001
0000
0100
0000
,
0000
0001
0000
0000
0100
0000
1000
0000
0010
0000
0100
0000
0010
0000
0100
0000
,
0000
0010
0000
0000
0100
0000
0000
0000
0010
0000
0100
0000
0001
0000
0010
0000
,
0000
0001
0000
0000
0010
0000
0100
0000
0010
0000
1000
0000
0100
0000
0010
0000
,
0000
0001
0000
0000
0010
0000
1000
0000
0010
0000
1000
0000
0001
0000
0100
0000
,
0000
0010
0000
0000
1000
0000
0100
0000
0001
0000
0010
0000
0001
0000
0100
0000
,
0010
1000
0002
0000
0003
2000
0000
3010
,
0000
0100
0000
0000
0001
0000
0100
0000
0001
0000
0100
0000
0001
0000
0010
0000
,
0000
0100
0000
0000
0010
0000
0100
0000
0001
0000
0100
0000
0010
0000
0100
0000
,
0000
0001
0000
0000
1000
0000
0010
0000
0001
0000
0100
0000
0010
0000
1000
0000
,
0000
0010
0000
0000
0200
0000
0000
0000
0000
0000
0000
0000
0300
0000
0010
0000
,
0001
0010
0001
0000
0100
1000
0010
0100
,
0000
1000
0001
0000
0001
0010
0100
0010
,
0000
0100
0000
0000
0001
0000
1000
0000
0010
0000
1000
0000
0100
0000
0010
0000
,
0001
0100
0010
0100
0001
0010
0100
0010
,
0100
0010
0100
0000
0010
0000
0001
0000
,
1000
0001
1000
0001
,
0100
0010
0100
0001
,
1000
0010
1000
0010
,
0100
0010
1000
0100
,
1000
0001
0100
0001
,
0100
0010
1000
0001
,
1000
0000
0100
0010
0100
0010
0100
1000
,
0001
0010
2200
0000
0000
0000
0000
0000
,
3300
0000
0000
0000
;
