#VERSION:0.83;
#TITLE:ONE NIGHT IN ARABIA;
#ARTIST:GO GO GIRLS;
#GENRE:EUROBEAT;
#CREDIT:B. M'Rey;
#MUSIC:ONE NIGHT IN ARABIA.ogg;
#BANNER:ONE NIGHT IN ARABIA-bn.png;
#BACKGROUND:ONE NIGHT IN ARABIA-bg.png;
#CDTITLE:./CDTITLES/Para Para Paradise.PNG;
#SAMPLESTART:63.561;
#SAMPLELENGTH:15;
#OFFSET:-0.146;
#BPMS:0.000=151.088;

//--------------- dance-single - B. M'Rey ----------------
#NOTEDATA:;
#STEPSTYPE:dance-single;
#DESCRIPTION:B. M'Rey;
#DIFFICULTY:Beginner;
#METER:4;
#RADARVALUES:0.091635,0.153946,0.051315,0,0,75,69,6,0,0,0,0.091635,0.153946,0.051315,0,0,75,69,6,0,0,0;
#NOTES:
0000
0000
0000
0000
,
0000
0000
0000
0000
,
0000
0000
0000
0000
,
0000
0000
0000
0000
,
0000
0000
0000
0000
,
0000
0000
0000
0000
,
0000
0000
0000
0000
,
0000
0000
0000
0000
,
0001
0001
0001
0000
,
1000
0000
0100
0000
,
0010
0010
0010
0000
,
1000
0000
1000
0000
,
0100
0100
0100
0000
,
0010
0000
0001
0000
,
0001
0000
0000
0000
,
0000
0000
0000
0000
,
1000
0000
0010
0000
,
0100
0100
0100
0000
,
0001
0000
0010
0000
,
0001
0001
0001
0001
,
0001
0000
1000
0000
,
0010
0010
0010
0000
,
0100
0000
1000
0100
,
1000
1000
1000
1000
,
0010
0000
0100
0000
,
0001
0000
0010
0001
,
0010
0000
1000
0000
,
0100
1000
0100
0000
,
0010
0000
0100
0000
,
0001
0000
1000
0100
,
0010
0000
0001
0000
,
0001
0000
0000
0000
,
1000
0000
0010
0000
,
0100
0001
0010
0000
,
1000
0000
0001
0010
,
0100
0000
0100
0000
,
0010
1000
0000
0000
,
0100
0010
0001
0000
,
0000
1000
0001
0000
,
1001
0000
0000
0000
,
0010
0010
0010
0000
,
0100
0000
1000
0000
,
0000
0001
0000
1000
,
0001
0000
0010
0000
,
0100
0001
0010
0000
,
1000
0000
0001
0000
,
0000
0100
0000
0010
,
0000
0001
0000
1000
,
0010
0100
0010
0000
,
0001
0000
1000
0000
,
0000
0000
0010
0000
,
0100
0000
0001
0000
,
0001
0010
0100
0000
,
1000
0000
0001
0000
,
0000
0000
0100
0000
,
0010
0000
1000
0000
,
0001
0000
0001
0010
,
0001
0000
0100
0000
,
0010
0000
1000
0000
,
0001
0000
0000
1000
0000
0000
0010
0000
,
0100
0000
0000
0000
,
0000
0000
0001
0000
,
0001
0000
0000
1000
0000
0000
0000
0000
,
0000
0001
0010
0100
,
1000
0000
0000
0000
,
0010
0000
0001
0000
,
0010
0000
0100
0000
,
0001
0010
1000
0100
,
0001
0000
0000
0000
,
0010
0000
0100
0000
,
1000
0000
0010
0000
,
0100
1000
0100
0000
,
0001
0000
0000
0000
;

//--------------- dance-single - B. M'Rey ----------------
#NOTEDATA:;
#STEPSTYPE:dance-single;
#DESCRIPTION:B. M'Rey;
#DIFFICULTY:Easy;
#METER:7;
#RADARVALUES:0.213814,0.307892,0.025658,0.017105,0,175,172,3,2,0,0,0.213814,0.307892,0.025658,0.017105,0,175,172,3,2,0,0;
#NOTES:
0000
0000
0000
0000
,
0000
0000
0000
0000
,
0000
0000
0000
0000
,
0000
0000
0000
0000
,
1000
0000
0000
0001
,
0010
0000
0000
0100
,
1000
0000
0000
0000
,
0001
0000
0000
0000
,
1000
0100
0010
0000
,
0001
0000
1000
0001
,
0010
0100
1000
0000
,
0010
0000
0100
0000
,
0001
0010
1000
0000
,
0100
0000
1000
0001
,
0001
0000
0000
1000
0000
0000
0010
0000
,
0100
0000
0000
0000
,
1001
0000
0001
0010
,
0100
0000
0001
0000
1000
0100
0010
0000
,
0001
0010
1000
0100
,
0001
0010
0100
0000
1000
0100
0010
0000
,
0001
0000
0010
0000
1000
0100
1000
0000
,
0010
0000
0001
0000
0010
0001
0010
0000
,
0100
0000
1000
0000
0010
0100
0010
0000
,
0001
0010
1000
0000
0100
0010
0001
0000
,
0001
1000
0100
0010
,
1000
0000
0001
0010
,
0001
0100
1000
0010
,
0100
1000
0001
0010
,
0000
0100
0000
0000
1000
0000
0100
0000
,
0001
0000
0010
0100
,
1000
0100
1000
0010
,
0000
0001
0000
1000
,
0001
1000
0001
0100
,
0010
0001
0010
0001
0000
0000
0000
1000
,
0000
0100
1000
0010
,
0100
0000
0001
0000
,
0010
0001
0010
1000
,
1001
1001
1001
0000
,
0000
0001
0000
0000
1000
0000
0001
0000
,
0010
0100
1000
0000
,
1001
1001
1001
0000
,
0001
1000
0010
0100
,
0000
0001
0010
0001
,
1000
0100
1000
0100
,
0001
0010
1001
0000
,
0010
0100
0001
0101
,
0000
0001
1000
0100
,
0010
0001
1000
0100
,
0001
1000
1001
0000
,
0010
0100
0001
0010
,
0000
1000
0100
1000
,
0010
0001
0010
1000
,
0100
0010
1001
0000
,
0010
0100
1000
1010
,
0000
0010
0100
0001
,
0010
1000
0100
1000
,
0000
0000
0001
0010
,
0001
1000
0000
0010
,
0100
0000
1000
0000
,
0001
0000
0000
0010
0000
0000
0001
0000
,
0100
0000
0000
0000
,
0010
0000
1000
0100
,
1000
0000
0000
0001
0000
0000
0010
0000
,
0001
0100
1000
0100
,
0001
1000
0100
0010
,
0001
0000
0010
0000
0001
0010
0100
0000
,
1000
0100
0010
1000
,
0001
0010
0001
0000
0100
1000
0100
0000
,
0010
0000
0100
0000
1000
0100
1000
0000
,
0010
0000
0001
0000
0001
0010
0001
0000
,
0100
0000
0010
0000
1000
0100
1000
0000
,
0001
0010
0001
0000
0100
0010
0100
0000
,
1001
0000
0000
0000
;

//--------------- dance-single - B. M'Rey ----------------
#NOTEDATA:;
#STEPSTYPE:dance-single;
#DESCRIPTION:B. M'Rey;
#DIFFICULTY:Medium;
#METER:11;
#RADARVALUES:0.35432,0.492628,0.162499,0.179604,0.025658,290,271,19,21,0,3,0.35432,0.492628,0.162499,0.179604,0.025658,290,271,19,21,0,3;
#NOTES:
0000
0000
0000
0000
,
0000
0000
0000
0000
,
0000
0000
0000
0000
,
0000
0000
0000
0000
,
1000
0001
0000
0010
,
0100
0001
0000
1000
,
0010
0100
0000
0001
,
0010
0100
0000
0000
,
0011
1100
0011
0000
,
0001
1000
0010
0100
,
0011
1100
0011
0000
,
0100
0010
1000
0100
,
0110
1001
0110
0000
,
0001
0010
1000
0100
,
0001
0000
0000
1000
0000
0000
0001
0000
,
1000
0000
0000
0000
,
0001
0010
0001
0000
1000
0100
0010
1000
,
0010
0100
0001
0010
0001
0010
0001
0000
,
0001
0010
1000
0000
0100
0010
1000
0100
,
1000
0100
0010
0001
0010
0001
0100
0000
,
0010
1000
0100
0000
0010
0001
0010
0001
,
0010
0100
1000
0100
1000
0100
1000
0000
,
0010
0100
0001
0000
0010
0001
1000
0100
,
0010
1000
0100
1000
0100
0010
0001
0000
,
0001
1000
0100
0010
0100
0000
0010
0000
,
0001
0000
0010
1000
0100
0010
1000
0100
,
0000
0001
0010
0001
0100
0000
1000
0000
,
0010
0100
0001
0010
0000
0001
1000
0000
,
0010
0100
1000
0100
0010
0000
0001
0000
,
0010
0000
1000
0100
0010
1000
0001
0100
,
0000
0010
0001
0010
1000
0100
0010
1000
,
0000
0001
0010
0001
0000
1000
0100
1001
,
0000
0010
0100
0101
0000
0010
1000
0100
,
0010
0100
0001
1001
0000
0000
0000
0010
,
0000
0100
0001
1000
0010
0000
0001
0000
,
1001
0110
0101
0110
,
0001
1000
0010
0100
0000
1000
0100
0010
,
0101
1010
0110
0110
,
0001
0010
1000
0100
0001
0000
0010
0000
,
0001
1000
0001
1000
0001
1000
0000
0000
,
1001
0000
0101
0000
0110
0000
0000
0001
,
0010
1000
0100
0010
0000
1000
0100
0000
,
0000
0001
0010
0100
0001
0000
1000
0000
,
0001
1000
0100
0010
,
0001
0010
1000
0100
1000
0000
0000
0010
,
0100
0001
0010
0001
0000
1000
0100
0000
,
0000
0010
0100
1000
0100
0000
0001
0000
,
1001
0110
0101
1010
,
0010
0100
1000
0100
0010
0000
0001
0010
,
0100
0001
1000
0010
0000
0100
1000
0000
,
0000
0001
0010
0100
0001
0000
1000
0000
,
0100
0110
0101
1010
,
0010
0100
1000
0100
0010
0000
0001
0010
,
0001
0100
0010
1000
0000
0100
1000
0000
,
0010
0100
0001
0010
0001
0000
0010
0000
,
1001
0110
0101
0110
,
0001
0000
0000
1000
0010
0100
1000
0100
,
0000
0001
0010
0000
0001
0100
0010
0000
,
1001
0110
0101
1010
,
0110
0000
0000
0101
0000
0000
1010
0000
,
0101
0000
0010
1000
0100
0000
0001
0010
,
0001
0000
1000
0100
0010
1000
0100
0000
,
0001
0010
0001
1000
0000
0100
1000
0010
,
0100
0000
0001
0010
1000
0000
0100
0000
,
0001
0010
0001
0000
1000
0100
0010
1000
,
0001
0100
0010
1000
0001
0100
1000
0000
,
0010
0100
1000
0000
0100
0010
0100
0001
,
0010
0001
1000
0100
1000
0100
1000
0000
,
0010
0100
0001
0000
0010
1000
0100
1000
,
0100
0010
0001
0010
0001
0010
0001
0000
,
1000
0100
1000
0000
0010
0100
0001
0010
,
0001
1000
0100
0010
1000
0001
0100
0000
,
1001
0000
0000
0000
;

//--------------- dance-single - B. M'Rey ----------------
#NOTEDATA:;
#STEPSTYPE:dance-single;
#DESCRIPTION:B. M'Rey;
#DIFFICULTY:Hard;
#METER:15;
#RADARVALUES:0.621894,0.837082,0.248024,0.307892,0.453286,509,480,29,36,0,3,0.621894,0.837082,0.248024,0.307892,0.453286,509,480,29,36,0,3;
#NOTES:
0000
0000
0000
0000
,
0000
0000
0000
0000
,
0000
0000
0000
0000
,
0000
0000
0000
0000
,
1000
0001
0100
0010
0000
0000
0010
0000
,
0001
1000
0010
0100
0000
0000
0100
0000
,
0010
0001
0010
0001
0000
0000
1000
0000
,
0010
0100
0001
0010
0000
0000
0000
0000
,
1001
0110
0101
0010
,
0001
0000
0000
1000
0000
0000
0010
0000
0100
0000
0000
0010
0000
0000
0001
0000
,
0110
1100
0101
0001
,
0001
0000
0000
1000
0000
0000
0010
0000
0100
0000
0000
1000
0000
0000
0010
0000
,
1001
0110
0011
1100
,
0001
0000
0000
0010
0000
0000
0100
0000
0001
0000
0010
0000
1000
0000
0000
0000
,
0001
0010
0001
0010
0000
1000
0100
0010
,
1000
0100
0000
0000
0000
0000
0000
0000
,
0001
1000
0001
1000
0001
0000
0000
0000
0100
0010
0001
1000
0001
0000
0001
1000
,
0000
0001
0000
1000
0001
0010
0001
0010
0100
0010
0100
1000
0100
0000
0000
0000
,
0001
0100
0001
1000
0100
0000
0000
0000
0001
0100
0001
0100
0001
0000
0010
1000
,
0001
1000
0001
0010
0100
0010
0100
0000
0001
1000
0100
1000
0100
0000
0000
0000
,
0001
0010
0100
0010
0100
0000
0000
0000
0001
1000
0100
0010
0100
0000
0100
1000
,
0000
0010
0000
1000
0001
0010
0001
1000
0001
0010
0100
0010
0100
0000
0000
0000
,
0001
0100
0001
1000
0100
0000
0000
0000
0001
0010
0001
1000
0001
1000
0010
1000
,
0010
0100
0010
0100
0001
0000
0001
1000
0010
1000
0010
1000
0001
0000
0000
0000
,
0001
0000
0100
0000
0001
0000
0100
0000
0001
0000
0010
0100
0000
0000
0010
0000
,
0100
0000
0000
0000
0001
0000
0100
0000
0010
0000
0100
0010
0000
0100
0001
0000
,
0000
1000
0001
0010
0200
0000
0301
0000
,
0001
0100
0010
0100
0000
1000
0010
0000
,
0001
0000
1000
0000
0001
0000
0010
0000
0001
0000
1000
0010
0000
1000
0010
0000
,
0000
0000
1000
0000
0001
0000
0100
0000
0001
0000
0100
0001
0000
0010
0100
0000
,
0000
1000
0010
0100
0010
1000
0010
1000
,
0100
0000
0010
0100
0010
1000
0010
1001
,
0000
1000
0001
0011
0000
0010
0100
0010
,
0100
1000
0100
1000
0000
1000
0010
0100
,
0010
0100
0001
0100
0001
0000
0010
0000
,
0100
0010
0100
0000
0100
1000
0001
0000
,
0001
0010
0001
1000
0000
1000
0100
1000
,
0101
0000
0101
0000
1001
0000
0010
1000
,
0010
0100
0010
0100
0001
0000
1001
0000
,
0001
1000
0010
1000
0010
0100
0010
1000
,
1001
0000
0101
0000
0011
0000
0100
0010
,
0100
0010
0001
0100
0000
0100
0001
0010
,
0100
0010
0100
0010
0001
0000
0010
0100
,
0010
0100
0000
0000
0001
1000
0000
0000
0001
0100
0000
0000
0001
1000
0000
0000
,
0100
1000
0100
0000
0110
0000
0010
0100
,
0010
1000
0001
0010
0000
0010
0001
0000
,
0010
0000
0100
0000
0010
0000
0100
0000
0010
1000
0000
0000
0001
1000
0000
0000
,
0001
1000
0000
0000
0010
0100
0000
0000
0010
0100
0000
0000
0010
1000
0000
0000
,
0001
1000
0010
1000
0010
0000
0010
0100
,
0001
0100
0001
1000
0000
1000
0100
1000
,
0001
0100
0001
0100
0010
0100
0001
1000
,
0100
1000
0000
0000
0100
1000
0000
0000
0001
0010
0000
0000
0001
0010
0000
0000
,
0001
0100
0010
0100
0010
0000
0001
1000
,
0100
1000
0100
1000
0000
0100
0001
0010
,
0001
0010
0100
0010
0100
1000
0100
0010
,
0001
0010
0000
0000
0001
0010
0000
0000
0100
1000
0000
0000
0001
1000
0000
0000
,
0110
0000
0001
1000
0100
1000
0100
1000
,
0010
0100
0010
0000
0001
0100
0001
0010
,
0001
0000
0100
0010
0001
0000
0100
0010
,
0100
0000
0100
1000
0010
0000
1010
0000
,
0101
0000
0001
0100
0001
0000
0100
1000
,
0001
0000
0001
0010
0001
0010
0100
0000
,
0100
1000
0100
1000
0000
1000
0001
0010
,
0001
0010
0100
0010
0100
0000
1000
0000
,
0001
0100
0001
0100
0001
0000
0000
0000
0100
0010
0100
0010
0001
0000
0001
1000
,
0000
0010
0000
1000
0001
0100
0001
0100
0010
1000
0010
1000
0010
0000
0000
0000
,
0001
0100
0010
1000
0010
0000
0000
0000
0001
0100
0001
1000
0100
0000
0001
1000
,
0010
0100
0001
0100
0001
0000
0010
1000
0000
1000
0010
0100
0001
0000
0000
0000
,
0010
1000
0010
1000
0001
0000
0000
0000
0001
0010
0100
0010
0100
0000
0100
1000
,
0000
1000
0000
0100
0010
1000
0100
1000
0001
1000
0001
0100
0001
0000
0000
0000
,
0100
0010
0001
1000
0001
0000
0000
0000
0010
0100
0010
0100
0001
0000
0010
1000
,
0001
1000
0010
0100
0001
0000
0001
0100
0010
1000
0010
1000
0010
0000
0000
0000
,
1001
0000
0000
0000
;
