#VERSION:0.83;
#TITLE:Nova emoção;
#ARTIST:Berimbau '66;
#TITLETRANSLIT:Nova emocao;
#GENRE:SAMBA;
#CREDIT:B. M'Rey;
#MUSIC:Nova emocao.ogg;
#BANNER:Nova emocao-bn.png;
#BACKGROUND:Nova emocao-bg.png;
#CDTITLE:./CDTITLES/MAMBO A GO GO.png;
#SAMPLESTART:40.802;
#SAMPLELENGTH:15;
#OFFSET:-0.414;
#BPMS:0=94,30=136;
#STOPS:44=0.475;

//--------------- dance-single - B. M'Rey ----------------
#NOTEDATA:;
#STEPSTYPE:dance-single;
#DESCRIPTION:B. M'Rey;
#DIFFICULTY:Beginner;
#METER:2;
#RADARVALUES:0,0,0,0,0;
#NOTES:
0000
0000
1000
0000
,
0010
0000
0100
0000
,
0001
0000
0010
0000
,
0001
0000
0100
0000
,
0010
0000
1000
0000
,
0010
0000
0100
0000
,
0001
0000
0010
0000
,
1000
0000
1001
0000
,
0000
0000
1001
0000
,
0000
0000
1001
0000
,
0000
0000
1001
1001
,
1001
0100
0000
0010
,
0000
1000
0000
0000
,
0000
0001
0000
0010
,
0000
0100
0000
0000
,
0000
0010
0000
0001
,
0000
1000
0000
0010
,
0000
0001
0000
0100
,
0000
1001
0000
0000
,
0000
0010
0000
1000
,
0000
1000
0000
0000
,
0000
0010
0000
0100
,
0000
0001
0000
0000
,
0000
1000
0000
0001
,
0000
1000
0000
0001
,
0000
1000
0000
0001
,
0000
1001
0000
0000
,
0000
0110
0000
0000
,
0000
0011
0000
0000
,
0000
1000
0000
0000
,
0000
0001
0000
0010
,
0000
0001
0000
0100
,
0000
0010
0000
1000
,
0000
0010
0000
0100
,
0000
0001
0000
0010
,
0000
0001
0000
0100
,
0000
0010
0000
1000
,
0000
0010
0000
0100
,
0000
0001
0000
0000
,
0000
0001
0000
1000
,
0000
0010
0000
0100
,
0000
0010
0000
1000
,
0000
0001
0000
0010
,
0000
0001
0000
0100
,
0000
0010
0000
1000
,
0000
0010
0000
0100
,
0000
0001
0000
0000
,
0000
1000
0001
0000
,
0000
1001
0000
0000
;

//--------------- dance-single - B. M'Rey ----------------
#NOTEDATA:;
#STEPSTYPE:dance-single;
#DESCRIPTION:B. M'Rey;
#DIFFICULTY:Easy;
#METER:5;
#RADARVALUES:0,0,0,0,0;
#NOTES:
0000
0000
0100
0010
,
0100
1000
0010
0100
,
0001
0010
0100
0010
,
0001
0100
0010
0100
,
0010
0100
0001
1000
,
0001
0100
0010
1000
,
0010
0100
0010
1000
,
0001
0010
1010
0000
,
0000
0000
0011
0000
,
0000
0000
0110
0000
,
1001
0000
0001
1000
,
1001
0010
1000
0001
,
0100
0001
0010
0001
,
0100
0010
0100
0001
,
1000
0020
0000
0000
,
0030
0100
0010
0100
,
1000
0100
1000
0010
,
0100
0010
0100
0001
,
1000
0200
0000
0000
,
0300
0100
1000
0001
,
1000
0010
1000
0001
,
0010
0001
0010
0001
,
1000
0100
1000
0100
,
0010
0100
0010
0001
,
1001
0010
0100
0010
,
1010
0001
1000
0100
,
1000
1001
0000
0000
,
0000
0110
0000
0000
,
0000
0101
0000
1001
,
0000
0110
0000
0000
,
0000
0001
0100
0010
,
0100
0010
0100
0001
,
0010
0100
0010
0100
,
1000
0001
0100
0001
,
1000
0010
1000
0100
,
1000
0100
0010
0001
,
0010
0001
0010
0100
,
1000
0010
1000
0100
,
1000
0100
0010
0100
,
1000
0001
0010
0100
,
0010
0100
0010
0001
,
1000
0010
1000
0010
,
1000
0100
0010
0001
,
0010
0001
1000
0100
,
0010
0100
0010
0100
,
1000
0001
1000
0001
,
0010
0100
1000
0001
,
1000
0010
1000
0100
,
0010
0000
0000
0000
;

//--------------- dance-single - B. M'Rey ----------------
#NOTEDATA:;
#STEPSTYPE:dance-single;
#DESCRIPTION:B. M'Rey;
#DIFFICULTY:Medium;
#METER:8;
#RADARVALUES:0,0,0,0,0;
#NOTES:
0000
0000
0000
0000
0001
1000
0001
0000
,
0010
0000
0100
0000
0100
0010
0001
0000
,
0100
0000
0001
0000
0100
0010
0100
0000
,
1000
0000
0001
0000
1000
0001
0100
0000
,
0010
0000
0100
1000
0001
0000
0010
0000
,
1000
0100
0010
0100
0010
0000
0001
0000
,
1000
0000
0100
0010
0100
0000
0010
0000
,
1000
0000
0010
1000
1001
0000
0000
0000
,
0110
0000
0101
0000
,
0110
0000
1001
0000
,
1001
0000
1001
1001
,
1001
0000
0100
0010
1000
0000
0010
0100
,
1000
0001
1000
0010
,
0100
0000
0001
0100
1000
0000
0010
0001
,
0100
0002
0000
0000
,
0003
0000
0001
0010
0100
0000
0010
0001
,
1000
0000
0001
0100
0010
0000
0100
0010
,
1000
0000
0001
0010
0100
0000
0010
0001
,
0100
2002
0000
3003
,
0000
0000
0100
0001
0010
0000
0001
0010
,
1000
0000
0001
0000
1000
0000
0001
0010
,
0100
0000
0010
1000
0100
0000
0001
0010
,
0100
0010
2000
0000
,
0000
0000
3001
0010
0100
0000
0001
0010
,
1000
0000
0100
0001
0010
0000
0001
1000
,
0100
0000
0010
0001
0100
0000
0001
0100
,
0010
1001
0000
0000
,
0000
0110
0000
0000
,
0000
1001
0000
0110
,
0000
0000
0000
0000
0101
0000
0000
0101
0000
0000
0000
0110
0000
0000
1001
0000
,
1001
0000
0010
0100
1000
0000
0010
0001
,
1000
0000
0001
0010
0100
0000
0001
0100
,
1000
0000
0001
1000
0010
0000
0100
0001
,
0010
0000
0001
0010
1000
0000
0010
0001
,
0100
0000
0001
1000
0010
0000
0100
0010
,
1000
0000
0010
0001
1000
0000
0100
0001
,
0010
0101
1000
0110
,
0010
1001
0110
0011
,
1010
0000
0110
0000
1000
0001
0010
0000
,
0100
0000
0010
0000
1000
0001
0100
0000
,
1000
0000
0010
0000
0100
0010
0001
0000
,
0010
0000
0100
0000
0010
1000
0001
0000
,
0100
0010
0001
0000
0010
0000
0100
0000
,
1000
0000
0001
1000
0010
0000
0100
0001
,
1000
0000
0001
0000
0010
0100
0001
0000
,
0100
1000
0010
0000
0100
0000
0001
0000
,
1000
0100
1000
0001
,
1000
1001
1001
0000
,
0000
0110
0000
0000
;

//--------------- dance-single - B. M'Rey ----------------
#NOTEDATA:;
#STEPSTYPE:dance-single;
#DESCRIPTION:B. M'Rey;
#DIFFICULTY:Hard;
#METER:11;
#RADARVALUES:0,0,0,0,0;
#NOTES:
0000
0000
0000
0000
0000
0000
0000
0000
0001
0000
0010
0000
0001
1000
0000
0001
,
0000
0100
0000
0010
1000
0000
0001
0000
1000
0000
0100
0000
1000
0010
0000
0100
,
0000
0010
0000
0100
0001
0000
1000
0000
0100
0000
0010
0000
0001
1000
0000
0010
,
0000
1000
0000
0010
1000
0000
0001
0000
0010
0000
0100
0000
1000
0001
0000
1000
,
0000
0001
0000
0010
0001
0000
0010
0000
0100
0000
1000
0000
0010
0100
0000
0010
,
0000
0100
0000
0001
0100
0000
0001
0000
0010
0000
0001
0000
0010
0100
0000
0010
,
0000
0100
0000
1000
0010
0000
0100
0000
0001
0000
0010
0000
1000
0010
0000
0100
,
0000
0001
0000
1000
0010
0000
0100
0000
1001
0000
0000
0000
0000
0000
0000
0000
,
0110
0000
0101
0000
,
0110
0000
1001
0110
,
0101
1100
0101
0101
,
1001
0000
0000
0000
0001
0000
0010
0001
0010
0000
0010
0000
0001
0000
1000
0000
,
0100
1000
0100
0000
0001
0000
0100
0000
,
0001
0000
0000
0000
0100
0010
0100
0000
0001
0000
1000
0000
0100
0000
1000
0000
,
0100
1000
0001
0000
0010
0000
0100
0000
,
0001
0000
0000
0000
0001
0000
0010
0001
0010
0000
1000
0010
1000
0000
1000
0000
,
0010
0000
0000
0000
1000
0000
0100
0001
0100
0000
1000
0001
1000
0000
0010
0000
,
0100
0000
0000
0000
0100
0000
0010
0001
0010
0000
0100
0001
0100
0000
0100
0000
,
0001
1000
1100
0000
1001
0000
0110
0110
,
0000
0000
0000
0000
0100
0000
1000
0010
1000
0000
1000
0000
0010
0000
1000
0000
,
0001
0010
0100
0000
1000
0000
0100
1000
,
0010
0000
0100
0010
0100
0010
0000
0000
0100
0000
0010
0000
0001
0000
0100
0000
,
0001
0000
1000
0000
0100
0000
0000
2000
0000
0000
0000
0000
3020
0000
0000
0000
,
0000
0000
0000
0000
0130
0000
1000
0001
1000
0000
0100
0001
0100
0000
0100
0001
,
0100
0000
0000
0000
0100
0000
0010
0100
0010
0000
0010
0001
0010
0000
0100
0001
,
0100
0000
0000
0000
0001
0000
1000
0010
1000
0000
1000
0010
1000
0000
1000
0001
,
1000
0100
0001
0000
1000
0000
0001
0000
,
1000
0101
0100
0010
,
0100
0110
0100
1001
,
1000
0000
0000
0000
1001
0000
0000
1001
0000
0000
0000
0110
0000
0000
0011
0000
,
1001
0000
0100
1000
0100
1000
0100
0010
,
0001
0010
0001
0010
0100
1000
0100
0010
,
0100
0010
0001
0010
0001
1000
0010
1000
,
0010
1000
0100
0010
0001
0010
0001
0010
,
0100
1000
0100
0010
0100
0010
0001
0010
,
0001
1000
0010
1000
0010
1000
0001
0010
,
0001
0100
0001
0100
0010
0100
0010
1000
,
0010
1000
0100
1000
0100
0010
0100
0010
,
0001
0010
0001
0000
0010
0000
1000
0000
,
0100
0000
0001
1000
0001
1000
0001
0100
,
0010
0100
0010
0100
0001
1000
0001
1000
,
0001
0010
0100
0010
0001
0010
0001
1000
,
0001
0010
0100
0010
0100
0010
0001
1000
,
0001
1000
0001
0010
0100
1000
0100
1000
,
0100
0010
0001
0010
0001
0010
0100
1000
,
0100
1000
0100
0010
0001
0010
0001
0010
,
0100
1000
0100
1000
0100
0010
0001
0010
,
0001
0010
1100
0000
1001
0000
0000
0000
,
0000
0011
0000
0000
;
