#VERSION:0.83;
#TITLE:MY FAVOURITE GAME (Definitive Mix);
#ARTIST:NATALIE BROWNE;
#GENRE:ITALODANCE;
#CREDIT:B. M'Rey;
#MUSIC:MY FAVOURITE GAME (Definitive Mix).ogg;
#BANNER:MY FAVOURITE GAME (Definitive Mix)-bn.png;
#BACKGROUND:MY FAVOURITE GAME (Definitive Mix)-bg.png;
#CDTITLE:./CDTITLES/DANCEMANIA DIAMOND 2.PNG;
#SAMPLESTART:1.790;
#SAMPLELENGTH:15.000;
#OFFSET:0.023;
#BPMS:0.000=136.000,100.000=68.000,124.000=136.000;

//--------------- dance-single - B. M'Rey ----------------
#NOTEDATA:;
#STEPSTYPE:dance-single;
#DESCRIPTION:B. M'Rey;
#DIFFICULTY:Beginner;
#METER:2;
#RADARVALUES:0.126112,0.145838,0,0,0,74,74,0,0,0,0,0.126112,0.145838,0,0,0,74,74,0,0,0,0;
#NOTES:
0000
0000
0000
0000
,
0000
0000
0000
0000
,
0000
0000
0000
0000
,
0000
0000
0000
0000
,
0000
0000
0000
0000
,
0000
1000
0000
0010
,
0000
0100
0000
1000
,
0000
0001
0000
0010
,
0000
1000
0100
0000
,
0000
0010
0000
0001
,
0000
1000
0000
0010
,
0000
1000
0000
0100
,
0000
0001
1000
0000
,
0000
0100
0000
0001
,
0000
0010
0000
0100
,
0000
1000
0000
0001
,
0000
0100
0000
1000
,
0000
0001
0000
0010
,
0000
1000
0000
0100
,
0000
0010
0000
0001
,
0000
1000
0010
0000
,
0000
0001
0000
1000
,
0000
0100
0000
0001
,
0000
0010
0000
0100
,
0000
1000
0001
0000
,
0100
0000
0010
1000
,
0100
0000
0010
0000
,
1000
0000
0001
0010
,
1000
0000
0100
0000
,
0010
0000
0000
0000
,
0001
0000
0000
0000
,
0100
0000
0100
0000
,
0100
0010
0001
1000
,
0000
0100
0000
0010
,
0000
1000
0000
0100
,
0000
0010
0000
0001
,
0000
0100
0000
1000
,
0000
0001
0000
0100
,
0000
1000
0000
0010
,
0000
0100
0000
0001
,
0000
0010
0000
0100
;

//--------------- dance-single - B. M'Rey ----------------
#NOTEDATA:;
#STEPSTYPE:dance-single;
#DESCRIPTION:B. M'Rey;
#DIFFICULTY:Easy;
#METER:7;
#RADARVALUES:0.282899,0.315982,0.011929,0,0,166,165,1,0,0,0,0.282899,0.315982,0.011929,0,0,166,165,1,0,0,0;
#NOTES:
0000
0000
0000
0000
,
0000
0000
0000
0000
,
0000
0000
0000
0000
,
0000
0000
0000
0000
,
0000
0000
0000
0000
,
1000
0000
1000
0000
1000
0000
1000
0010
,
0010
0000
0010
0000
0010
0000
0010
0100
,
0100
0000
0100
0000
0100
0000
0100
1000
,
0001
0000
1000
0000
0001
0100
1000
0000
,
0010
0000
0010
0000
0010
0000
0010
0100
,
0100
0000
0100
0000
0100
0000
0100
0001
,
0001
0000
0001
0000
0001
0000
0001
0010
,
0100
0000
1000
0010
0001
0000
1000
0000
,
0001
0000
0100
0000
1000
0000
0010
1000
,
0100
0000
1000
0000
0010
0000
0100
0010
,
0001
0000
1000
0000
0001
0000
1000
0001
,
0100
0000
0001
1000
0100
0000
0001
0000
,
0010
0000
0010
0000
0010
0000
0010
0010
,
0100
0000
0100
0000
0100
0000
0100
0100
,
0001
0000
0001
0000
0001
0000
0001
1000
,
0100
0000
1000
0001
0010
0000
1000
0000
,
0010
0000
0010
0000
0010
0000
0010
0100
,
0100
0000
0100
0000
0100
0000
0100
0100
,
1000
0000
1000
0000
1000
0000
1000
0001
,
0100
0000
0010
0001
1000
0000
1001
0000
,
0100
0010
0001
1000
,
0010
0000
0001
1000
,
0100
0010
1000
0001
,
0100
0000
0010
1000
,
0100
0000
0000
0000
,
0001
0000
1000
0000
,
0100
0000
0001
0000
,
1000
0000
0010
0000
0100
0001
0100
0010
,
0001
0000
0100
0000
0010
0000
1000
0100
,
0010
0000
1000
0000
0001
0000
1000
0001
,
0010
0000
0001
0000
1000
0000
0010
0001
,
0100
0000
0010
1000
0001
0000
0100
0000
,
1000
0000
0001
0000
1000
0000
0001
0100
,
1000
0000
0010
0000
0100
0000
0001
0010
,
0100
0000
1000
0000
0010
0000
0100
1000
,
0001
0000
1000
0010
0001
0000
0010
0000
;

//--------------- dance-single - B. M'Rey ----------------
#NOTEDATA:;
#STEPSTYPE:dance-single;
#DESCRIPTION:B. M'Rey;
#DIFFICULTY:Medium;
#METER:11;
#RADARVALUES:0.400489,0.437513,0.298237,0.155083,0.095436,235,210,25,13,0,0,0.400489,0.437513,0.298237,0.155083,0.095436,235,210,25,13,0,0;
#NOTES:
0000
0000
0000
0000
,
0000
0000
0000
0000
,
0000
0000
0000
0000
,
0000
0000
0000
0000
,
0000
0000
0000
0000
,
1000
0000
0100
0010
0100
1000
0010
0000
,
0001
0000
1000
0001
0100
0000
1000
0000
,
0100
0000
0001
1000
0100
1000
0001
0000
,
2010
0000
3000
0001
1000
0000
0000
0000
2010
0000
3000
0001
1000
0000
0000
0000
,
0101
0000
1000
0100
0010
0100
1000
0000
,
0101
0000
0100
0010
1000
0000
0101
0000
,
0011
0000
1000
0001
0100
0001
1000
0000
,
0012
0000
0000
1003
0001
0000
0000
0000
0012
0000
0000
1003
0001
0000
0000
0000
,
1100
0000
0001
0010
0100
0010
0001
0000
,
1001
0000
0010
0100
1000
0001
0100
0000
,
1010
0000
1000
0001
0100
0001
1000
0010
,
0001
1000
0000
0000
0100
0000
0100
0000
0010
0001
0000
0000
1100
0000
0000
0000
,
1001
0000
0100
0010
0100
1000
0001
0000
,
1100
0000
0100
0001
1000
0000
0011
0000
,
1010
0000
1000
0001
0010
0001
1000
0000
,
0102
0000
0000
1003
0001
0000
0000
0000
0102
0000
0000
1003
0001
0000
0000
0000
,
1010
0000
0001
0100
0010
0100
0001
0000
,
0011
0000
0100
1000
0001
0000
0110
0000
,
0101
0000
0001
1000
0010
1000
0001
0000
,
2100
0000
3000
0001
1000
0000
0000
0000
2100
0000
3000
0001
1000
0000
0000
0000
,
0011
0000
0000
0000
1000
0000
0000
0000
0100
0000
0010
0000
0001
0000
0000
0010
,
0100
0000
0000
0000
0001
0000
0000
0000
0010
0000
0000
0000
1000
0000
0000
0100
,
0001
0100
0010
0001
,
0100
0000
0020
0032
,
0203
0300
0000
0000
,
2000
3000
2000
3000
,
0001
0000
1000
0000
0001
0000
1000
0001
,
1000
0000
0100
0001
0010
0100
0010
0001
,
0001
0100
0010
0100
0001
1000
0100
0000
,
0010
0100
1000
0100
0001
0001
1000
0000
,
0100
0001
1000
0100
0010
0100
0001
0010
,
0100
1000
0000
0000
0001
0000
0001
0000
0100
0010
0000
0000
1000
0000
0100
0000
,
0010
0100
0001
1000
0001
0100
0010
0000
,
0100
1000
0010
0100
0010
1000
0001
0000
,
0010
0100
1000
0010
0100
1000
0001
0010
,
0100
0001
0000
0000
0010
0000
0010
0000
0100
1000
0000
0000
0001
0000
0000
0000
;

//--------------- dance-single - B. M'Rey ----------------
#NOTEDATA:;
#STEPSTYPE:dance-single;
#DESCRIPTION:B. M'Rey;
#DIFFICULTY:Hard;
#METER:13;
#RADARVALUES:0.533418,0.559045,0.083506,0.023859,0.214731,313,306,7,2,0,0,0.533418,0.559045,0.083506,0.023859,0.214731,313,306,7,2,0,0;
#NOTES:
0000
0000
0000
0000
,
0000
0000
0000
0000
,
0000
0000
0000
0000
,
0000
0000
0000
0000
,
0000
0000
0000
0000
,
0001
0000
0010
0000
0100
0000
1000
0000
0001
0000
0010
0100
1000
0000
0010
0000
,
0100
0000
0010
0000
0001
0000
1000
0000
0100
0000
1000
0001
1000
0000
0010
0000
,
0001
0000
1000
0000
0100
0000
0010
0000
0001
0000
1000
0100
0010
0000
0001
0000
,
0100
0000
0010
1000
0010
0000
0001
0000
1000
0000
0100
0001
0100
0000
0010
0000
,
1000
0000
0001
0000
0100
0000
0010
0000
0100
0000
0001
0100
1000
0000
0001
0000
,
1000
0000
0010
0000
0001
0000
0100
0000
0010
0000
0100
0001
1000
0000
0100
0000
,
0010
0000
0100
0000
0001
0000
1000
0000
0100
0000
1000
0001
1000
0000
0010
0000
,
0100
0000
1000
0100
1000
0000
0001
0000
0100
0000
0010
0000
1001
0000
0000
0000
,
1000
0000
0100
0000
0010
0000
0001
0000
1000
0000
0100
0000
0010
0000
0001
0010
,
1000
0000
0001
0000
0100
0000
1000
0000
0010
0000
0100
0000
0001
0000
1000
0010
,
0100
0000
0001
0000
0010
0000
0100
0000
0010
0000
1000
0000
0001
0000
0010
0100
,
0001
0000
0010
0000
0100
0000
1000
0001
0010
0000
0100
0000
1100
0000
0000
0000
,
0010
0000
0001
0000
1000
0000
0100
0000
0010
0000
0001
1000
0100
0000
0010
0000
,
1000
0000
0001
0000
1000
0000
0100
0000
0010
0000
1000
0100
1000
0000
0001
0000
,
0100
0000
0010
0000
1000
0000
0001
0000
0100
0000
0010
0001
1000
0000
0100
0000
,
1000
0000
0001
1000
0010
0000
0001
0000
0100
0000
0010
1000
0001
0000
0010
0000
,
0100
0000
0010
0000
0001
0000
0100
0000
0010
0000
1000
0001
0010
0000
0100
0000
,
0010
0000
1000
0000
0001
0000
1000
0000
0100
0000
0001
0010
0001
0000
0100
0000
,
0010
0000
0001
0000
1000
0000
0100
0000
0001
0000
0010
0100
0010
0000
0001
0000
,
0100
0000
0010
1000
0010
0000
0001
0000
1000
0000
0100
0001
1000
0000
0110
0000
,
1001
0001
1000
0100
0010
0001
0100
0010
,
0100
1000
0001
0010
1000
0010
0100
1000
,
0001
0010
1000
0100
0001
1000
0100
0010
,
0100
0001
0010
0100
1000
0001
0100
1000
,
0002
0000
0000
0000
,
2003
0000
0000
0000
,
3001
1000
0001
0000
0100
0000
0001
1000
0001
0000
0100
0000
0001
1000
0001
0000
,
0010
0000
0001
1000
0001
0000
0010
0000
0001
1000
0001
0000
1001
0000
1000
0000
,
0001
0000
1000
0000
0100
0000
0010
0000
1000
0000
0100
0000
0001
0000
0100
1000
,
0001
0000
0010
0000
0100
0000
1000
0000
0001
0000
0010
0000
1000
0000
0001
1000
,
0001
0000
0010
0000
0001
0000
1000
0000
0100
0000
1000
0000
0001
0000
0010
1000
,
0010
0000
0100
0000
0001
0000
0010
0100
1000
0000
0001
0000
1001
0000
0000
0000
,
0100
0000
0010
0000
0001
0000
1000
0000
0001
0000
0100
0000
1000
0000
0010
1000
,
0010
0000
0100
0000
0001
0000
1000
0000
0010
0000
0100
0000
0001
0000
0010
0100
,
1000
0001
0010
1000
0001
1000
0100
0001
,
0100
0010
1000
0000
0001
0000
0010
0000
0100
1000
0001
0000
1100
0000
0000
0000
;
