#TITLE:MAX;
#SUBTITLE:-full circle-;
#ARTIST:KITA KERU;
#GENRE:HARDCORE TECHNO;
#CREDIT:B. M'Rey;
#MUSIC:Max -full circle-.ogg;
#BANNER:Max -full circle-.png;
#BACKGROUND:Max -full circle--bg.png;
#CDTITLE:./CDTITLES/DDR LEGACY.PNG;
#SAMPLESTART:56.000;
#SAMPLELENGTH:12.000;
#OFFSET:-0.034;
#BPMS:0=45,16=90,32=180,64=45,66=360,450=45,452=360,580=45;
#DISPLAYBPM:*;

//--------------- dance-single - B. M'Rey ----------------
#NOTES:
     dance-single:
     B. M'Rey:
     Beginner:
     3:
     0,0,0,0,0:
0000
0000
0000
0000
,
0000
0000
0000
0000
,
1000
0000
0001
0000
,
0100
0000
0010
0000
,
0001
0000
1000
0000
,
0001
0000
0100
0000
,
0010
0000
1000
0000
,
0001
0000
0010
0000
,
0001
0000
0000
0000
,
0100
0000
0000
0000
,
0010
0000
0000
0000
,
1000
0000
0001
0000
,
0100
0000
0000
0000
,
0010
0000
0000
0000
,
1000
0000
0000
0000
,
0001
0000
0010
0000
,
0100
0000
0001
0000
,
0000
0000
1000
0000
,
0000
0000
0010
0000
,
0000
0000
0100
0000
,
0000
0000
0001
0000
,
0000
0000
1000
0000
,
0000
0000
0001
0000
,
0000
0000
0100
0000
,
0000
0000
0110
0000
,
0000
0000
0001
0000
,
0000
0000
1000
0000
,
0000
0000
0010
0000
,
0000
0000
0100
0000
,
0000
0000
0001
0000
,
0000
0000
1000
0000
,
0000
0000
0010
0000
,
0000
0000
0001
0000
,
0000
0000
1000
0000
,
0001
0000
1000
0000
,
0000
0000
0010
0000
,
0000
0000
0100
0000
,
0010
0000
0100
0000
,
0000
0000
0001
0000
,
0000
0000
0001
0000
,
0010
0000
1001
0000
,
0000
0000
0010
0000
,
0000
0000
0100
0000
,
0010
0000
0100
0000
,
0000
0000
0001
0000
,
0000
0000
1000
0000
,
0001
0000
1000
0000
,
0000
0000
0010
0000
,
0000
0000
0100
0000
,
0000
0000
0000
0000
,
0001
0000
0000
0000
,
0000
0000
0000
0000
,
1000
0000
0000
0000
,
0000
0000
0000
0000
,
0010
0000
0000
0000
,
0000
0000
0000
0000
,
0100
0000
0000
0000
,
0000
0000
0000
0000
,
0001
0000
0000
0000
,
0000
0000
0000
0000
,
1000
0000
0000
0000
,
0000
0000
0000
0000
,
0010
0000
0000
0000
,
0000
0000
0000
0000
,
0100
0000
0001
0000
,
0000
0000
1000
0000
,
0000
0000
0001
0000
,
0000
0000
1000
0000
,
0000
0000
0001
0000
,
0000
0000
1000
0000
,
0000
0000
0001
0000
,
0000
0000
1000
0000
,
0001
0000
1000
0000
,
0000
0000
0010
0000
,
0000
0000
0100
0000
,
0000
0000
0010
0000
,
0000
0000
0100
0000
,
0000
0000
0010
0000
,
0000
0000
0100
0000
,
0000
0000
0010
0000
,
0000
0000
0001
0000
,
0000
0000
1000
0000
,
0000
0000
0001
0000
,
0000
0000
1000
0000
,
0000
0000
0001
0000
,
0000
0000
1000
0000
,
0000
0000
0001
0000
,
0000
0000
1000
0000
,
0001
0000
1000
0000
,
0000
0000
0010
0000
,
0000
0000
0100
0000
,
0000
0000
0010
0000
,
0000
0000
0100
0000
,
0000
0000
0010
0000
,
0000
0000
0100
0000
,
0000
0000
0010
0000
,
0000
0000
0001
0000
,
0000
0000
1000
0000
,
0100
0000
0100
0000
,
0000
0000
0001
0000
,
0010
0000
0010
0000
,
0000
0000
1000
0000
,
0000
0000
0001
0000
,
0000
0000
0100
0000
,
0000
0000
0010
0000
,
0000
0000
0001
0000
,
0010
0000
0010
0000
,
0000
0000
1000
0000
,
0100
0000
0100
0000
,
0000
0000
0001
0000
,
0000
0000
1000
0000
,
0000
0000
0010
0000
,
0000
0000
0100
0000
,
0001
0000
0000
0000
,
1000
0000
0001
0000
,
1000
0000
0000
0000
,
0010
0000
0000
0000
,
0100
0000
0010
0000
,
0100
0000
0000
0000
,
0001
0000
0000
0000
,
0001
0000
0010
0000
,
1001
0000
0000
0000
,
0010
0000
0000
0000
,
0100
0000
0010
0000
,
0100
0000
0000
0000
,
0001
0000
0000
0000
,
1000
0000
0001
0000
,
1000
0000
0000
0000
,
0010
0000
0000
0000
,
0200
0000
0000
0000
,
0302
0000
2003
0000
,
3020
0000
0000
0000
,
0230
0000
0302
0000
,
0023
0000
0000
0000
,
2030
0000
3200
0000
,
2300
0000
3020
0000
,
0230
0000
0302
0000
,
0023
0000
0000
0000
,
2030
0000
3200
0000
,
2300
0000
0000
0000
,
3020
0000
0230
0000
,
0301
0000
0000
0000
,
1000
0000
0000
0000
,
0001
0000
0000
0000
,
1000
0000
0001
0000
,
2002
0000
0000
3003
;

//--------------- dance-single - B. M'Rey ----------------
#NOTES:
     dance-single:
     B. M'Rey:
     Easy:
     6:
     0,0,0,0,0:
0000
0000
0000
0000
,
0000
0000
0000
0000
,
0010
0100
0001
1000
,
0100
1000
0001
0010
,
0100
0000
1000
0000
,
0001
0000
0010
0000
,
0001
0000
0100
0000
,
0010
0000
1000
0000
,
0001
0000
0001
0000
,
0100
0000
0100
0000
,
0010
0000
0010
0000
,
1000
0000
1000
0000
,
0001
0000
0001
0000
,
0010
0000
0010
0000
,
0100
0000
0100
0000
,
0001
0000
1000
0000
,
1001
0000
0010
0000
,
0001
0010
0000
0000
,
1000
0000
0100
0000
,
0010
0100
0000
0000
,
0001
0000
0010
0000
,
1000
0100
0000
0000
,
0010
0000
0100
0000
,
0001
0010
0000
0000
,
1000
0000
1001
0000
,
0010
0100
0000
0000
,
0001
0000
1000
0000
,
0010
0100
0000
0000
,
0001
0000
0010
0000
,
1000
0100
0000
0000
,
0010
0000
0001
0000
,
0001
0100
0000
0000
,
1000
0000
1001
0000
,
0010
0100
0000
0010
,
0001
0000
1000
0000
,
0010
1000
0000
0010
,
0001
0000
0100
0000
,
0010
0100
0000
1000
,
0001
0000
1000
0000
,
0010
1000
0000
0001
,
0100
0000
0101
0000
,
0010
1000
0000
0001
,
0010
0000
0100
0000
,
0001
0100
0000
1000
,
0010
0000
1000
0000
,
0010
1000
0000
0010
,
0001
0000
0100
0000
,
0001
0100
0000
0010
,
1000
0000
0001
0000
,
1000
0000
0010
0000
,
0100
0000
0000
0000
,
0001
0000
1000
0000
,
0010
0000
0000
0000
,
0100
0000
0001
0000
,
1000
0000
0000
0000
,
0010
0000
0100
0000
,
1000
0000
0000
0000
,
0010
0000
0100
0000
,
0001
0000
0000
0000
,
0010
0000
1000
0000
,
0100
0000
0000
0000
,
0001
0000
0010
0000
,
0100
0000
0000
0000
,
0001
0000
1000
0000
,
0010
0000
0200
0000
,
0000
0000
0302
0000
,
2003
0000
3020
0000
,
0000
0000
0230
0000
,
0302
0000
0023
0000
,
0000
0000
2030
0000
,
3200
0000
2300
0000
,
3020
0000
0230
0000
,
0302
0000
0023
0000
,
0000
0000
2030
0000
,
3200
0000
2300
0000
,
0000
0000
3020
0000
,
0230
0000
0302
0000
,
0000
0000
0023
0000
,
0032
0000
0203
0000
,
0320
0000
2030
0000
,
3200
0000
0320
0000
,
0000
0000
0032
0000
,
2003
0000
3020
0000
,
0000
0000
0230
0000
,
2300
0000
3200
0000
,
0000
0000
0320
0000
,
0230
0000
0302
0000
,
2003
0000
3020
0000
,
0230
0000
0302
0000
,
0000
0000
0023
0000
,
0230
0000
0302
0000
,
0000
0000
2003
0000
,
3200
0000
0320
0000
,
0000
0000
2030
0000
,
3200
0000
2300
0000
,
3020
0000
0230
0000
,
0302
0000
0013
0000
,
0000
0000
1001
0000
,
1010
0000
0110
0000
,
0000
0000
1100
0000
,
1010
0000
0110
0000
,
0000
0000
0101
0000
,
0011
0000
0011
0000
,
1001
0000
1100
0000
,
0110
0000
1010
0000
,
0000
0000
1100
0000
,
1100
0000
1010
0000
,
0000
0000
0110
0000
,
0101
0000
0011
0000
,
0000
0000
0110
0000
,
1100
0000
0110
0000
,
0011
0000
1001
0000
,
1010
0000
0000
0000
0000
0000
0000
0000
0022
0000
0000
0000
0000
0000
0000
0033
,
0011
0000
1000
0100
,
0000
0010
0100
0000
,
0001
0000
0010
0001
,
0000
0001
1000
0000
,
0010
0000
0100
0010
,
0000
0100
0001
0000
,
0010
0000
1000
0010
,
0000
0100
0001
0000
,
1001
0000
0010
0100
,
0000
0001
0100
0000
,
0010
0000
1000
0010
,
0000
0100
0001
0000
,
0010
0000
0001
0100
,
0000
0010
1000
0000
,
0010
0000
0100
0010
,
0000
0100
0001
0000
,
1001
0000
0000
0000
,
0001
0000
0010
0000
,
0100
0000
0000
0000
,
1000
0000
0100
0000
,
0010
0000
0000
0000
,
1000
0000
0100
0000
,
0001
0000
0010
0000
,
1000
0000
0001
0000
,
0101
0000
0000
0000
,
0010
0000
1000
0000
,
0100
0000
0000
0000
,
0010
0000
0100
0000
,
1001
0000
0000
0000
,
1001
0000
0000
0000
,
1001
0000
1001
0000
,
1001
1000
0001
1000
,
2002
0000
0000
3003
;

//--------------- dance-single - B. M'Rey ----------------
#NOTES:
     dance-single:
     B. M'Rey:
     Medium:
     9:
     0,0,0,0,0:
0000
0000
0000
0000
,
0000
0000
0000
0000
,
0100
0010
0001
1000
,
0100
0010
0100
0010
,
0001
1000
0010
0100
,
0001
1000
0010
1000
,
0100
1000
0100
0010
,
0001
1000
0010
1000
,
0010
0100
0010
1000
,
0001
0100
0001
1000
,
0010
1000
0010
1000
,
0100
0010
0001
1000
,
0010
1000
0010
0100
,
0010
1000
0100
0010
,
0001
0010
0100
1000
,
0001
0010
0001
1000
,
0200
0000
0301
0010
,
0100
1000
0000
0010
,
0100
0010
0100
1000
,
0010
0100
0000
1000
,
0001
1000
0100
0010
,
0001
1000
0000
0010
,
0100
1000
0010
1000
,
0001
1000
0000
0010
,
0001
1000
0110
0000
,
0010
1000
0000
0100
,
0010
1000
0001
0100
,
0001
0100
0000
1000
,
0010
0100
0001
1000
,
0100
1000
0000
0010
,
0100
1000
0001
0100
,
0010
1000
0000
0010
,
0001
0100
1010
0000
,
0001
1000
0000
0010
,
0100
1000
0001
0100
,
0010
0100
0000
1000
,
0001
0010
0100
1000
,
0100
0010
0000
0100
,
0010
0100
0001
0100
,
0010
1000
0000
0010
,
0100
1000
0110
0000
,
0001
1000
0000
0100
,
0001
1000
0100
0010
,
0001
0010
0000
0100
,
0001
0010
0100
1000
,
0001
0100
0000
0100
,
0001
1000
0100
1000
,
0010
0100
0000
1000
,
0001
0100
0010
1000
,
0001
0100
0010
1000
,
0001
0010
0001
1000
,
0001
1000
0010
0100
,
0010
0100
0001
0100
,
0001
1000
0010
1000
,
0010
0100
0001
1000
,
0010
1000
0001
1000
,
0100
0010
0001
0100
,
0010
1000
0010
0100
,
0001
0100
0010
0100
,
0001
0010
0100
1000
,
0001
1000
0010
1000
,
0001
0100
0001
1000
,
0100
1000
0001
0100
,
0010
1000
0001
0010
,
0100
1000
0020
0000
,
0000
0030
0002
0000
,
0203
0000
0320
0000
,
0000
0000
0230
0000
,
0302
0000
0203
0000
,
0000
0000
0302
0000
,
2003
0000
3200
0000
,
0301
0010
0001
1000
,
0020
0000
0032
0000
,
0000
0000
0023
0000
,
0032
0000
0203
0000
,
0000
0000
0320
0000
,
0032
0000
0203
0000
,
0000
0000
0302
0000
,
0023
0000
0230
0000
,
0302
0000
0203
0000
,
0302
0000
0023
0000
,
0000
0030
2000
0000
,
3002
0000
0023
0000
,
0000
0000
0230
0000
,
2300
0000
3020
0000
,
0000
0000
0032
0000
,
0203
0000
0320
0000
,
1030
0010
0001
1000
,
0200
0000
0302
0000
,
0000
0000
0203
0000
,
0320
0000
2030
0000
,
0000
0000
3002
0000
,
0023
0000
0230
0000
,
0000
0000
0320
0000
,
0032
0000
2003
0000
,
3020
0000
0230
0000
,
0302
0000
0013
1000
,
0001
0100
0001
1000
,
0100
1000
0001
0010
,
0100
1000
0001
0100
,
0010
0100
0001
0010
,
0100
1000
0100
1000
,
0001
0010
0100
1000
,
0001
0010
0100
1000
,
0001
0010
0100
1000
,
0100
0010
0001
0100
,
0010
1000
0001
0100
,
0010
0100
0001
1000
,
0001
1000
0100
0010
,
0001
0100
0001
0100
,
0010
1000
0001
0010
,
0100
1000
0001
0100
,
0010
0100
0002
0000
,
1003
0010
0100
1000
,
0000
0010
0100
0010
,
0100
1000
0010
0100
,
0000
1000
0001
1000
,
0100
0010
0001
1000
,
0000
0010
0100
1000
,
0010
1000
0001
1000
,
0000
0010
0001
1000
,
0110
0000
0010
1000
,
0000
0100
0010
1000
,
0001
0100
0001
0100
,
0000
1000
0010
0100
,
0001
1000
0100
1000
,
0000
0010
0100
1000
,
0001
0100
0010
1000
,
0000
0010
0001
0100
,
0020
0130
0001
1000
,
0020
0130
0002
0103
,
0002
0013
0100
0010
,
0002
1003
0020
0130
,
0020
0130
0010
1000
,
0002
1003
0200
0310
,
0200
0310
0200
2300
,
3002
0203
0320
1030
,
0020
1030
0100
0010
,
0002
0013
0200
0310
,
0200
1300
0100
1000
,
0020
0130
0020
0130
,
0101
0000
0000
0000
,
1010
0000
0000
0000
,
1001
0000
1010
0000
,
0001
0100
0010
0100
,
2002
0000
0000
3003
;

//--------------- dance-single - B. M'Rey ----------------
#NOTES:
     dance-single:
     B. M'Rey:
     Hard:
     10:
     0,0,0,0,0:
0000
0000
0000
0000
,
0000
0000
0000
0000
,
0100
0010
0001
0100
0001
0010
0100
1000
,
0100
0010
0001
0010
0100
1000
0100
0010
,
0001
0000
0100
0001
0010
0000
1000
0100
,
0010
0000
0100
0010
0001
0010
1000
0000
,
0100
0000
0010
1000
0001
0000
1000
0010
,
0100
0000
1000
0010
0001
1000
0100
0001
,
0010
0100
0001
0010
,
0001
0010
0100
0010
,
0100
1000
0001
0100
,
0010
0000
1000
0010
0001
1000
0010
0000
,
0100
1000
0001
0100
,
0010
1000
0100
0010
,
0001
0010
0001
1000
,
0100
0010
0001
0010
,
0200
0000
0301
0100
,
0001
0010
0100
1000
,
0010
0100
0001
1000
,
0001
0010
0100
0010
,
0001
1000
0100
0010
,
0001
0010
0001
0010
,
0100
1000
0001
0100
,
0001
1000
0001
1000
,
0010
1000
0101
0100
,
0010
1000
0001
0010
,
0001
0100
0001
1000
,
0100
0010
0001
1000
,
0010
0100
0010
1000
,
0100
0010
0001
0100
,
0010
0100
0001
0010
,
0100
1000
0010
0100
,
0010
1000
0001
0100
,
0001
1000
0010
1000
,
0100
0010
0100
0010
0100
0000
0100
0000
,
0010
0100
0010
1000
,
0001
0100
0001
0100
0001
0000
1000
0000
,
0001
0010
0100
1000
,
0001
0010
0001
0010
0100
0000
1000
0000
,
0001
0100
0010
0100
,
0001
1000
0001
1000
1001
0000
0010
0000
,
0100
1000
0001
1000
,
0100
0010
0100
0010
0001
0000
0100
0000
,
0010
0100
0001
1000
,
0010
1000
0010
1000
0010
0000
1000
0000
,
0100
0010
0100
1000
,
0001
0010
0001
0010
0100
0000
0010
0000
,
0100
1000
0001
0010
,
0100
0010
0100
0010
0001
0000
0010
0000
,
0001
0010
0000
0100
0010
0000
1000
0000
,
0010
0100
0000
0100
0001
0000
0100
0000
,
0001
1000
0000
1000
0010
0000
0100
0000
,
0001
1000
0000
1000
0100
0000
1000
0000
,
0001
0010
0000
0010
0001
0000
0100
0000
,
0010
0100
0000
0100
0001
0000
0010
0000
,
0100
0010
0000
0010
0001
0000
0100
0000
,
0001
1000
0100
1000
,
0001
0010
0000
0010
0100
0000
1000
0000
,
0001
0010
0000
0010
0001
0000
1000
0000
,
0100
0010
0000
0010
0001
0000
1000
0000
,
0010
0100
0000
0100
0010
0000
1000
0000
,
0001
1000
0000
1000
0100
0000
0010
0000
,
0001
1000
0000
1000
0001
0000
0100
0000
,
0001
1000
0000
1000
0100
0000
0010
0000
,
0100
1000
0020
0130
,
0001
1000
0020
0130
,
0002
0103
0002
0013
,
0100
0010
0002
1003
,
0020
0130
0020
0130
,
0010
1000
0002
1003
,
0200
0310
0200
0310
,
0200
2300
3002
0203
,
0320
1030
0020
1030
,
0100
0010
0002
0013
,
0200
0310
0200
1300
,
0100
1000
0020
0130
,
0020
0130
0002
0103
,
0001
1000
0020
0130
,
0002
1003
0002
0103
,
0002
2003
3020
0230
,
0302
1003
0200
0310
,
0001
1000
0200
0310
,
0002
1003
0020
0130
,
0010
0100
0020
1030
,
0200
0310
0002
0103
,
0010
1000
0002
0103
,
0020
1030
0002
1003
,
0200
0320
0032
2003
,
3020
0130
0020
0130
,
0001
0100
0020
1030
,
0020
0130
0020
1030
,
0001
0010
0200
1300
,
0002
0103
0020
0130
,
0010
1000
0002
0013
,
0200
0310
0200
0310
,
0002
2003
3002
0203
,
0302
0013
0100
1000
,
0100
0010
0001
1000
,
0100
0010
0100
0010
0100
0000
0010
0000
,
0100
1000
0001
0100
,
0010
1000
0010
1000
0100
0000
0010
0000
,
0001
0010
0100
1000
,
0001
0100
0001
0100
0010
0000
1000
0000
,
0001
0010
0001
0010
0001
0000
0010
0000
,
0100
1000
0010
1000
0010
0000
1000
0000
,
0010
0100
0001
0010
,
0100
1000
0010
1000
0010
0000
1000
0000
,
0001
0100
0010
1000
,
0100
0010
0100
0010
0001
0000
1000
0000
,
0100
1000
0001
0100
,
0010
0100
0010
0100
0010
0000
1000
0000
,
0001
1000
0001
1000
0010
0000
0100
0000
,
0001
0100
0001
0100
0020
0000
0000
0000
,
0031
1000
0100
0010
,
0001
1000
0100
0010
,
0001
0010
0001
1000
,
0100
0010
0001
1000
,
0001
1000
0100
1000
,
0001
0100
0010
1000
,
0010
0100
0001
1000
,
0100
0010
0100
1000
,
0001
0100
0001
1000
,
0100
1000
0001
0010
,
0100
1000
0001
1000
,
0100
0010
0100
0010
,
0001
0010
0100
1000
,
0001
1000
0010
0100
,
0010
1000
0001
0100
,
0010
0100
0001
1000
,
0120
0130
0001
1000
,
0020
0130
0002
0103
,
0002
0013
0100
0010
,
0002
1003
0020
0130
,
0020
0130
0010
1000
,
0002
1003
0200
0310
,
0200
0310
0200
2300
,
3002
0203
0320
1030
,
1020
1030
0100
0010
,
0002
0013
0200
0310
,
0200
1300
0100
1000
,
0020
0130
0020
0130
,
1010
0000
0000
0000
,
0011
0000
0000
0000
,
1010
0000
1001
0000
,
0110
0011
0011
1010
,
2020
0000
0000
3030
;
