#TITLE:LONDON NIGHTS;
#ARTIST:LONDON BOYS;
#GENRE:HI-NRG;
#CREDIT:B. M'Rey;
#MUSIC:LONDON NIGHTS.ogg;
#BANNER:LONDON NIGHTS-bn.png;
#BACKGROUND:LONDON NIGHTS-bg.png;
#CDTITLE:./CDTITLES/DANCEMANIA/SUPER CLASSICS#4.PNG;
#SAMPLESTART:48.220;
#SAMPLELENGTH:11.860;
#OFFSET:-0.119;
#BPMS:0.000=119.604;

//--------------- dance-single - B. M'Rey ----------------
#NOTES:
     dance-single:
     B. M'Rey:
     Beginner:
     1:
     0.059,0.071,0,0,0:
0000
0000
0000
0000
,
0000
0000
0000
0000
,
0000
0000
0000
0000
,
0000
0000
0000
0000
,
0000
0000
0000
0000
,
0000
0000
0000
0000
,
0000
0000
0000
0000
,
0000
0000
0000
0000
,
1000
0000
0000
0000
,
0001
0000
0000
0000
,
0100
0000
0000
0000
,
0010
0000
0000
0000
,
1000
0000
0000
0000
,
0001
0000
0000
0000
,
0010
0000
0000
0000
,
0001
0000
0000
0000
,
0100
0000
0000
0000
,
0010
0000
0000
0000
,
1000
0000
0000
0000
,
0100
0000
0000
0000
,
1000
0000
0000
0000
,
0001
0000
0000
0000
,
0010
0000
0000
0000
,
0001
0000
0000
0000
,
0100
0000
0000
0000
,
0010
0000
0000
0000
,
1000
0000
0000
0000
,
0010
0000
0000
0000
,
0100
0000
0000
0000
,
0001
0000
0000
0000
,
0010
0000
0000
0000
,
0001
0000
0000
0000
,
0100
0000
0000
0000
,
0010
0000
0000
0000
,
1000
0000
0000
0000
,
0001
0000
0000
0000
,
0010
0000
0000
0000
,
0001
0000
0000
0000
,
0100
0000
0000
0000
,
0010
0000
0000
0000
,
1000
0000
0000
0000
,
0100
0000
0000
0000
,
1000
0000
0000
0000
,
0001
0000
0000
0000
,
0010
0000
0000
0000
,
0001
0000
0000
0000
,
0100
0000
0000
0000
,
0010
0000
0000
0000
,
1000
0000
0000
0000
,
0001
0000
0000
0000
,
0010
0000
0000
0000
,
0001
0000
0000
0000
,
0010
0000
0000
0000
;

//--------------- dance-single - B. M'Rey ----------------
#NOTES:
     dance-single:
     B. M'Rey:
     Easy:
     2:
     0.135,0.19,0.009,0.055,0:
0000
0000
0000
0000
,
0000
0000
0000
0000
,
0000
0000
0000
0000
,
0000
0000
0000
0000
,
0000
0000
0000
0000
,
0000
0000
0000
0000
,
0000
0000
0000
0000
,
0000
0000
0000
0000
,
1000
0000
0000
0000
,
0001
0000
0000
0000
,
0100
0000
0000
0000
,
0010
0000
0000
0000
,
0001
0000
0000
0000
,
0100
0000
0000
0000
,
0010
0000
0000
0000
,
1000
0000
0000
0000
,
0001
0000
0100
0000
,
0010
0000
1000
0000
,
0001
0000
0100
0000
,
0010
0000
0001
0000
,
1000
0000
0010
0000
,
0100
0000
0001
0000
,
0010
0000
0001
0000
,
0100
0000
0010
0000
,
2000
0000
3001
0000
,
0010
0010
0010
0010
,
0020
0000
0130
0000
,
0100
0100
0100
0100
,
0200
0000
0301
0000
,
0001
0001
0001
0001
,
0001
0000
0000
0000
,
1000
0000
0010
0000
,
0100
0010
0100
0010
,
0001
0010
0000
0000
,
1000
0001
0000
0000
,
0100
0000
0000
0000
,
0001
1000
0001
1000
,
0001
0010
0000
0000
,
0010
1000
0000
0000
,
0110
0000
0000
0000
,
2000
0000
3001
0000
,
0001
0001
0001
0001
,
0002
0000
1003
0000
,
1000
1000
1000
1000
,
0200
0000
0310
0000
,
0010
0010
0010
0010
,
0010
0000
0000
0000
,
0001
0001
0001
0001
,
0001
0000
0000
0000
,
0100
0100
0100
0100
,
0100
0000
0000
0000
,
0010
0010
0010
0010
,
0010
0000
0000
0000
;

//--------------- dance-single - B. M'Rey ----------------
#NOTES:
     dance-single:
     B. M'Rey:
     Medium:
     4:
     0.236,0.284,0.164,0.173,0:
0000
0000
0000
0000
,
0000
0000
0000
0000
,
0000
0000
0000
0000
,
0000
0000
0000
0000
,
0000
0000
0000
0000
,
0000
0000
0000
0000
,
0000
0000
0000
0000
,
0000
0000
0000
0000
,
2000
3000
0001
0010
,
0200
0300
0010
1000
,
0002
0003
0010
0100
,
0020
0030
0001
1000
,
0020
0030
0100
0010
,
2000
3000
0100
0001
,
0020
0030
0100
1000
,
0200
0300
0001
0010
,
0001
0010
1000
0001
,
0010
0100
0000
0001
,
1000
0010
0100
0001
,
0010
1000
0100
0001
,
0010
1000
0001
0010
,
0001
0000
0100
0100
0100
0000
0010
0000
,
0001
1000
0010
0100
,
0001
0000
0010
0010
0010
0000
0100
0000
,
0011
0011
0011
0000
,
0001
1000
0010
0100
,
1010
1010
1010
0000
,
0001
0100
0010
1000
,
0110
0110
0110
0000
,
0001
1000
0010
0100
,
0020
0000
0000
0030
,
0001
1000
0010
0100
,
0020
0032
0203
0310
,
1000
0001
0100
0010
,
1000
0100
0000
0001
,
0010
0000
0000
0000
,
0200
0320
0032
0003
,
0001
0010
1000
0100
,
0010
0001
0100
0010
,
2000
0000
0000
3000
,
1001
1001
1001
0000
,
0010
0100
0001
1000
,
0110
0110
0110
0000
,
0001
1000
0010
0100
,
0011
0011
0011
0000
,
0010
0100
1000
0010
,
0200
0000
0000
0300
,
0001
0010
0001
1000
,
0020
0000
0000
0030
,
0001
1000
0100
0010
,
0200
0000
0000
0300
,
0001
0010
0100
0010
,
0100
0000
0000
0000
;

//--------------- dance-single - B. M'Rey ----------------
#NOTES:
     dance-single:
     B. M'Rey:
     Hard:
     6:
     0.372,0.403,0.146,0.219,0:
0000
0000
0000
0000
,
0000
0000
0000
0000
,
0000
0000
0000
0000
,
0000
0000
0000
0000
,
0000
0000
0000
0000
,
0000
0000
0000
0000
,
0000
0000
0000
0000
,
0000
0000
0000
0000
,
1000
0100
1000
0000
0001
0010
0100
0000
,
0010
0001
0010
0000
0100
1000
0010
0000
,
0100
0010
0100
0000
0001
0010
1000
0000
,
0010
0100
0010
0000
0001
1000
0010
0000
,
0100
0010
0100
0000
0001
0010
0001
0000
,
0010
1000
0100
0000
0010
0100
0001
0000
,
0010
1000
0100
0000
0001
0010
0100
0000
,
0010
1000
0100
0000
0010
0001
0010
2000
,
0000
3001
0010
0002
0000
0013
1000
0200
,
0000
0302
0000
0000
0000
0013
1000
0100
,
0000
0001
0010
0100
1000
0000
0001
0200
,
0000
0320
0000
2030
0000
3002
0000
0013
,
0100
0000
1000
0000
0001
0000
0010
0100
,
0000
0001
1000
0010
0100
0000
0001
0000
,
0020
0000
2030
0000
3200
0000
0301
0020
,
0000
1030
0100
0010
0200
0000
0301
0000
,
1001
0000
1001
0000
1001
0000
0010
0100
,
0001
1000
0010
0100
0001
0010
0100
1000
,
0011
0000
0011
0000
0011
0000
0000
0010
,
1000
0100
0001
0010
0100
1000
0010
0100
,
0110
0000
0110
0000
0110
0000
0000
0001
,
1000
0010
0100
0001
0100
0010
0001
0100
,
0020
0000
0000
0000
0000
0000
0030
0010
,
1000
0100
0001
0010
0100
1000
0010
0100
,
0002
0000
2003
0000
3002
0000
1003
0100
,
0001
0010
0100
0010
0000
0001
1000
0010
,
0100
0000
0001
0000
0010
1000
0100
0001
,
0010
0100
1000
0001
,
0020
0000
0230
0000
0320
0000
0130
1000
,
0010
0001
1000
0010
0000
0001
0100
0010
,
1000
0001
0010
0001
0110
0000
0110
0000
,
0002
0000
0000
0000
,
1003
0000
1001
0000
1001
0000
0001
1000
,
0010
0100
0001
0010
1000
0100
0010
0100
,
0110
0000
0110
0000
0110
0000
0000
0001
,
1000
0010
0100
0010
0001
0100
0010
1000
,
0101
0000
0101
0000
0101
0000
0000
0010
,
1000
0100
0001
0010
0100
0010
1000
0010
,
0200
0000
0000
0000
0000
0000
0300
0001
,
1000
0010
0100
0001
0010
0100
0010
1000
,
0020
0000
0000
0000
0000
0000
0030
0100
,
0001
1000
0010
0100
0001
0100
0001
0010
,
2000
0000
0000
0000
0000
0000
3000
0010
,
1000
0001
0010
0001
0100
0010
0100
1000
,
0200
0000
0300
0000
;
