#VERSION:0.83;
#TITLE:LITTLE RED RIDING HOOD;
#ARTIST:A-MOE;
#GENRE:EUROPOP;
#CREDIT:B. M'Rey;
#MUSIC:Little Red Riding Hood.ogg;
#BANNER:Little Red Riding Hood-bn.png;
#BACKGROUND:Little Red Riding Hood-bg.png;
#CDTITLE:./CDTITLES/DANCEMANIA.png;
#SAMPLESTART:25.960;
#SAMPLELENGTH:15.000;
#OFFSET:-0.020;
#BPMS:0.000=150.000;

//--------------- dance-single - B. M'Rey ----------------
#NOTEDATA:;
#STEPSTYPE:dance-single;
#DESCRIPTION:B. M'Rey;
#DIFFICULTY:Beginner;
#METER:2;
#RADARVALUES:0.107,0.211,0.09,0,0;
#NOTES:
0000
0000
0000
0000
,
0000
0000
0000
0000
,
0000
0000
0000
0000
,
0000
0000
0000
0000
,
0000
0000
0000
0000
,
0000
0000
0000
0000
,
0000
0000
0000
0000
,
0000
0000
0000
0000
,
0000
0000
0000
0000
,
0000
1000
0000
0000
,
0000
0001
0000
0001
,
0000
0001
0000
0000
,
0000
0010
0000
0010
,
0000
0100
0000
0000
,
0000
1000
0000
1000
,
0000
1000
0000
0000
,
0000
1001
0000
0000
,
0000
0110
0000
0000
,
0000
0010
0000
0000
,
0000
1000
0000
0000
,
0000
0001
0000
0000
,
0000
0010
0000
0000
,
0000
0100
0000
0000
,
0000
0010
0000
0000
,
0000
0001
0000
0000
,
0000
1000
0000
0000
,
0000
0010
0000
0000
,
0000
0100
0000
0000
,
0000
0010
0000
0000
,
0000
1000
0000
0000
,
0000
0001
0000
0000
,
0000
0010
0000
0000
,
0000
0001
0000
0000
,
0000
1000
0000
0000
,
0000
0100
0000
0100
,
0000
0100
0000
0000
,
0000
0010
0000
0010
,
0000
0001
0000
0000
,
0000
1000
0000
1000
,
0000
0010
0000
0000
,
0000
1000
0000
0000
,
0000
1001
0000
0000
,
0000
1001
0000
0000
,
0000
0001
0000
0010
,
0000
0100
0000
0000
,
0000
1000
0000
1000
,
0000
0001
0000
0000
,
0000
1000
0000
0010
,
0000
0010
0000
0000
,
0000
0110
0000
0000
,
0000
1000
0000
1000
,
0000
0001
0000
0000
,
0000
0010
0000
0010
,
0000
0100
0000
0000
,
0000
0010
0000
0010
,
0000
0001
0000
0000
,
0000
1000
0000
1000
,
0000
0100
0000
0000
,
0000
0110
0000
0110
,
0000
0110
0000
0000
,
0000
1000
0000
0000
,
0000
0001
0000
0000
,
0000
1000
0000
0000
,
0000
1001
0000
0000
,
0000
0001
0000
0000
,
0000
0010
0000
0000
,
0000
0100
0000
0000
,
0000
0110
0000
0000
;

//--------------- dance-single - B. M'Rey ----------------
#NOTEDATA:;
#STEPSTYPE:dance-single;
#DESCRIPTION:B. M'Rey;
#DIFFICULTY:Easy;
#METER:5;
#RADARVALUES:0.233,0.306,0.198,0.09,0;
#NOTES:
0000
0000
0000
0000
,
0000
0000
0000
0000
,
0000
0000
0000
0000
,
0000
0000
0000
0000
,
0000
0000
0000
0000
,
0000
0100
0000
0010
,
0000
0100
0100
0100
,
0000
0001
0000
1000
,
0000
0001
0001
0001
,
0000
1001
1000
0000
,
0100
0000
0010
0000
,
0100
0000
0001
0000
,
1000
0000
0100
0100
,
0100
0000
0010
0000
,
1000
0000
0001
0000
,
0100
0000
0010
0000
,
0001
1000
1000
1001
,
0000
0220
0000
0000
,
0330
0100
1000
0000
,
0010
0000
0001
0000
,
1000
0000
0010
0000
,
1000
0000
0001
0000
,
0100
0000
0001
0000
,
0001
0000
0100
0000
,
0010
0000
1000
0000
,
0001
0000
0010
0000
,
0100
0000
1000
0000
,
0001
0000
0010
0000
,
1000
0000
0001
0000
,
0100
0000
0010
0000
,
0100
0000
1000
0000
,
0001
0000
0100
0000
,
0010
0000
1000
0000
,
0010
0000
0100
0000
,
0010
0001
1000
1000
,
0000
0010
0001
0001
,
0000
0100
0001
0001
,
0001
0000
0100
0010
,
0100
0000
1000
1000
,
0000
0001
0100
0001
,
2000
0002
0000
0000
0000
0000
3003
0000
,
0000
1001
1001
1001
,
0000
0100
0010
0010
,
0000
0100
1000
1000
,
0000
0001
0100
0100
,
0000
0010
1000
0010
,
1000
0010
0001
0001
,
0000
1000
0001
0001
,
1000
0010
0100
0000
,
1000
2002
0000
0000
,
3003
0000
0101
0000
,
0011
0000
1010
0000
,
1001
0000
0101
0000
,
1010
0001
0001
1000
,
0000
0000
0110
0000
,
0011
0000
1100
0000
,
1001
0000
1010
0000
,
0011
0010
0100
0010
,
0100
0110
0000
2002
,
3003
0100
1000
0000
,
0001
0000
0100
0000
,
0001
0000
0010
0000
,
0100
0000
0001
0000
,
1000
0000
0100
0000
,
0010
0000
0100
0000
,
1000
0000
0010
0000
,
0001
0000
1000
0000
,
0010
0220
0000
0000
,
0000
0330
0000
0000
;

//--------------- dance-single - B. M'Rey ----------------
#NOTEDATA:;
#STEPSTYPE:dance-single;
#DESCRIPTION:B. M'Rey;
#DIFFICULTY:Medium;
#METER:8;
#RADARVALUES:0.292,0.393,0.054,0.045,0;
#NOTES:
0000
0000
0000
0000
,
0000
0000
0000
0000
,
0000
0000
0000
0000
,
0000
0000
0000
0000
,
0000
0000
0000
0000
,
0000
0100
0000
0010
,
0000
0001
1000
0010
,
0000
0001
0000
0100
,
0000
0010
0100
0001
,
0000
1001
0100
0010
,
0001
0010
1000
0100
,
0001
0010
0100
0001
,
1000
0000
0010
0001
0100
0000
0010
0000
,
1000
0100
0001
0010
,
0001
0100
0010
1000
,
0100
0010
0002
0000
0000
0000
0000
0000
,
0000
1000
1000
2000
,
0000
3003
0000
0000
,
0000
0010
0100
0001
,
1000
0010
0100
0001
,
0010
0000
1000
1000
1000
0000
0010
0010
,
0010
0000
0001
0001
0001
0000
0100
0100
,
0100
0010
1000
0001
,
0100
0010
0001
1000
,
0010
0000
0100
0100
0100
0000
0001
0001
,
0001
0000
1000
1000
1000
0000
0100
0100
,
0100
0010
0001
1000
,
0010
0100
0010
0001
,
0010
0000
1000
1000
1000
0000
0001
0001
,
0001
0000
0010
0010
0010
0000
0100
0100
,
0100
0001
1000
0100
,
0010
0001
0100
0010
,
1000
0000
0001
0001
0001
0000
0010
0010
,
0010
0000
0100
0100
0100
0000
1000
1000
,
1000
1000
0001
0010
,
0100
0010
0001
1000
,
0010
0100
0001
0010
,
1000
0000
0010
0000
0100
0001
0010
0000
,
0100
1000
0001
0010
,
0001
0100
0010
1000
,
0100
0002
0000
0000
,
0000
2003
0000
0000
,
0000
3010
0010
1000
,
0001
1000
0010
0100
,
1000
0001
0010
1000
,
0100
0000
1000
0000
0001
0010
1000
0000
,
0001
0100
0010
1000
,
0010
0001
1000
0100
,
0001
0020
0000
0000
,
0000
0230
0000
0000
,
0000
1300
0000
0001
,
0000
1000
0100
0010
,
0000
0001
0000
1000
,
0000
1100
0110
0011
,
0000
0010
0000
0100
,
0000
0001
1000
0010
,
0000
0100
0000
0010
,
0000
0001
0010
1000
,
0100
0001
0000
0100
,
0000
0010
0100
0001
,
1000
0010
0100
0001
,
0010
0000
1000
1000
1000
0000
0010
0010
,
0010
0000
0001
0001
0001
0000
0100
0100
,
0100
0010
1000
0001
,
0100
0010
0001
1000
,
0010
0000
0100
0100
0100
0000
0001
0001
,
0001
0000
1000
1000
1000
0000
0100
0100
,
0100
0110
0000
0000
;

//--------------- dance-single - B. M'Rey ----------------
#NOTEDATA:;
#STEPSTYPE:dance-single;
#DESCRIPTION:B. M'Rey;
#DIFFICULTY:Hard;
#METER:11;
#RADARVALUES:0.438,0.49,0.072,0.09,0;
#NOTES:
0000
0000
0000
0000
,
0000
0000
0000
0000
,
0000
0000
0000
0000
,
0000
0000
0000
0000
,
0000
0000
0000
0000
,
0000
0000
0010
0000
0100
0001
1000
0000
,
0100
0001
0010
0100
1000
0000
1000
0000
,
0000
0000
0100
0000
1000
0100
1000
0000
,
1000
0010
0100
0010
0100
0000
1000
0000
,
0000
0000
1001
0000
0100
0001
0010
0000
,
0100
0000
0100
0000
0100
0001
0010
0000
,
0010
0010
1000
1000
,
0010
0000
0100
0001
1000
0010
0100
0000
,
1000
0000
1000
0000
0100
0001
0100
0000
,
0100
0000
1000
0000
0010
0001
1000
0000
,
0100
0010
0200
0000
0000
0000
0000
0000
,
0000
0010
0010
0020
,
0000
0330
0000
0000
,
0000
0000
1000
0010
1000
0010
1000
0100
,
0010
0000
0010
0100
1000
0001
1000
0001
,
1000
0000
0100
0010
0100
0000
1000
0001
,
1000
0000
1000
0001
0100
0000
0100
0001
,
0010
0000
0010
0001
0010
0001
0100
0001
,
0100
0000
0100
0010
1000
0010
1000
0100
,
1000
0000
0010
0100
0010
0000
0010
0001
,
1000
0000
1000
0010
0100
0000
0100
0010
,
1000
0000
0100
0001
0100
0010
0100
0010
,
1000
0000
0100
0001
0100
0001
0100
0010
,
1000
0000
1000
0010
1000
0000
0100
0010
,
0100
0000
0100
0001
0010
0000
0010
0100
,
0010
0000
1000
0100
1000
0010
0100
0010
,
0100
0000
1000
0001
0010
0001
0010
0001
,
0100
0000
0100
0010
0100
0000
1000
0001
,
1000
0000
1000
0100
0010
0000
0010
0001
,
0010
0000
1001
0000
1000
0001
0010
0000
,
0010
0100
1000
0000
1000
0010
1000
0000
,
0010
0001
0100
0000
0010
0100
0020
0000
,
0130
0000
1000
0010
1000
0100
0010
0000
,
0010
0000
1000
0000
0010
0100
1000
0000
,
1000
0010
1000
0000
0010
0000
1000
0000
,
1000
0100
2000
0000
0010
0000
0010
0000
,
0010
0000
3011
0000
0011
0000
0100
0001
,
1000
0010
1000
0000
1000
0100
0010
0000
,
0010
0001
0100
0000
0100
0001
0100
0000
,
0010
0100
0010
0000
1000
0010
2000
0000
,
3100
0000
1000
0010
0100
0010
1000
0000
,
1000
0000
0010
0000
0010
0001
0010
0000
,
1000
0100
0010
0000
0010
0000
1000
0000
,
0010
0100
0020
0000
1000
0000
1000
0000
,
1000
0000
0130
0000
0010
0000
1000
0010
,
1000
0100
1000
0000
0010
0001
0100
0000
,
0100
0001
1000
0000
1000
0001
0100
0000
,
1000
0001
1000
0000
0100
0010
1000
0000
,
0100
0001
1100
0000
1001
0000
2020
0000
,
3030
0001
0010
0000
0010
0100
1000
0000
,
0010
0001
0010
0000
1000
0001
0100
0000
,
0100
0001
0010
0000
0010
0100
0010
0000
,
0100
0001
1000
0000
0100
0000
1000
0100
,
0010
0001
0020
0000
0000
0000
2000
0000
,
0000
3030
1000
0001
1000
0001
1000
0100
,
0010
0000
0100
0001
1000
0001
0010
0100
,
1000
0000
0100
0010
1000
0000
0100
0001
,
0100
0000
0100
0010
1000
0000
1000
0010
,
0100
0000
1000
0001
0010
0001
0010
0100
,
0010
0000
1000
0100
1000
0001
1000
0100
,
0010
0000
0010
0100
1000
0000
1000
0100
,
0010
0011
0110
1001
,
1000
0001
2200
0000
0000
0000
0000
0000
,
0000
0000
0000
3300
0000
0000
0000
0000
;
