#TITLE:LITTLE LITTLE;
#ARTIST:REVIL. O;
#GENRE:HAPPY HARDCORE;
#CREDIT:B. M'Rey;
#MUSIC:LITTLE LITTLE.ogg;
#BANNER:LITTLE LITTLE-bn.png;
#BACKGROUND:LITTLE LITTLE-bg.png;
#CDTITLE:./CDTITLES/DANCEMANIA EXTRA.PNG;
#SAMPLESTART:48.517;
#SAMPLELENGTH:12.000;
#OFFSET:-0.061;
#BPMS:0.000=162.841;

//--------------- dance-single - B. M'Rey ----------------
#NOTES:
     dance-single:
     B. M'Rey:
     Beginner:
     1:
     0.079,0.063,0,0,0:
0000
0000
0000
0000
,
0000
0000
0000
0000
,
0000
0000
0000
0000
,
0000
0000
0000
0000
,
0000
0000
0000
0000
,
0010
0000
0000
0000
,
0100
0000
0000
0000
,
0001
0000
0000
0000
,
0100
0000
0000
0000
,
1000
0000
0000
0000
,
0001
0000
0000
0000
,
0100
0000
0000
0000
,
0010
0000
0000
0000
,
0001
0000
0000
0000
,
1000
0000
0000
0000
,
0010
0000
0000
0000
,
0100
0000
0000
0000
,
1000
0000
0000
0000
,
0100
0000
0000
0000
,
0001
0000
0000
0000
,
0010
0000
0000
0000
,
0001
0000
0000
0000
,
0100
0000
0000
0000
,
0010
0000
0000
0000
,
1000
0000
0000
0000
,
0010
0000
0000
0000
,
0100
0000
0000
0000
,
0001
0000
0000
0000
,
0010
0000
0000
0000
,
0100
0000
0000
0000
,
0010
0000
0000
0000
,
1000
0000
0000
0000
,
0001
0000
0000
0000
,
0010
0000
0000
0000
,
0001
0000
0000
0000
,
0100
0000
0000
0000
,
0010
0000
0000
0000
,
1000
0000
0000
0000
,
0100
0000
0000
0000
,
0001
0000
0000
0000
,
0010
0000
0000
0000
,
0100
0000
0000
0000
,
0010
0000
0000
0000
,
1000
0000
0000
0000
,
0001
0000
0000
0000
,
0100
0000
0000
0000
,
0010
0000
0000
0000
,
1000
0000
0000
0000
,
0001
0000
0000
0000
,
0010
0000
0000
0000
,
0001
0000
0000
0000
,
0100
0000
0000
0000
,
0010
0000
0000
0000
,
1000
0000
0000
0000
,
0010
0000
0000
0000
,
0100
0000
0000
0000
,
0001
0000
0000
0000
,
0100
0000
0000
0000
,
0010
0000
0000
0000
,
1000
0000
0000
0000
,
0001
0000
0000
0000
,
0100
0000
0000
0000
,
0010
0000
0000
0000
,
0001
0000
0000
0000
,
0100
0000
0010
0000
;

//--------------- dance-single - B. M'Rey ----------------
#NOTES:
     dance-single:
     B. M'Rey:
     Easy:
     2:
     0.183,0.22,0.068,0,0:
0000
0000
0000
0000
,
0000
0000
0000
0000
,
0000
0000
0000
0000
,
0000
0000
0000
0000
,
0000
0000
0000
0000
,
0001
0100
0001
0000
,
0001
1000
0100
0000
,
0001
0100
0010
0000
,
0010
1000
0001
0000
,
1000
0000
0001
0100
,
0010
0000
1000
0100
,
0001
0000
0010
0100
,
1000
0000
0010
0100
,
0001
0000
0010
1000
,
0100
0000
0010
0100
,
0001
0000
0010
1000
,
0100
0000
0010
0100
,
0001
0000
0000
0000
,
0000
0000
0000
0000
,
0100
0000
0000
0000
,
0000
0000
0000
0000
,
0010
0000
0000
0000
,
1000
0000
0000
0000
,
0001
0000
0000
0000
,
0100
0000
0010
0000
,
0001
0000
0000
0000
,
0000
0000
0000
0000
,
0100
0000
0000
0000
,
0000
0000
0000
0110
,
0110
0000
0000
0000
,
0011
0000
0000
0000
,
1100
0000
0110
0000
,
1001
0000
0000
0000
0000
0000
0000
0001
,
0000
0000
0000
0100
0000
0001
0000
0010
,
0000
0100
0000
1000
0000
0000
0000
0001
,
0000
0100
0000
0010
0000
1000
0000
0001
,
0000
0010
0000
0100
0000
0000
0000
0001
,
0000
0010
0000
0100
0000
0000
0000
1000
,
0000
0001
0000
0010
0000
0100
0000
1000
,
0000
0000
0000
0000
0000
0000
0000
0001
,
0000
0000
0000
0000
0000
0000
0000
1000
,
0000
0010
0000
0100
0000
0000
0000
0001
,
0000
0010
0000
0000
0000
1000
0000
0001
,
0000
0010
0000
0100
0000
0010
0000
1000
,
0000
0100
0000
0001
0000
0010
0000
0100
,
0000
1000
0000
0010
0000
0000
0000
0100
,
0000
0001
0000
1000
0000
0000
0000
0010
,
0000
0100
0000
0001
0000
0000
0000
0000
,
1001
0000
0000
0000
,
1000
0000
0010
0000
,
0100
0000
0001
0010
,
0100
0000
1000
0000
,
0001
0000
0010
1000
,
0100
0000
0010
0000
,
0001
1000
0010
0000
,
0100
1000
0001
0000
,
0010
1000
0100
0000
,
0001
0000
0100
0000
,
0010
0000
1000
0010
,
0100
0000
0001
0000
,
0100
0000
0010
1000
,
0001
0000
0010
0000
,
0100
0000
1000
0001
,
0100
0000
0010
0000
,
1000
0000
0010
0000
;

//--------------- dance-single - B. M'Rey ----------------
#NOTES:
     dance-single:
     B. M'Rey:
     Medium:
     6:
     0.445,0.48,0.029,0.446,0:
0000
0000
0000
0000
,
0000
0000
0000
0000
,
0000
0000
0000
0000
,
0000
0000
0000
0000
,
0000
0000
0000
0000
,
0001
0000
0001
0000
0010
1000
0010
0000
,
0001
0000
0001
0000
0001
1000
0010
0000
,
0010
0000
0001
0000
0100
0010
0001
0000
,
0001
0000
0100
0000
0100
1000
0010
0000
,
1000
0000
0001
0000
0010
0100
0010
0000
,
1000
0000
0100
0000
1000
0100
1000
0000
,
0001
0000
0100
0000
0010
0001
0100
0000
,
0010
0000
1000
0000
0100
0010
1000
0000
,
0100
0000
0001
0000
0010
0100
0010
0000
,
0001
0000
1000
0000
0010
0100
0001
0000
,
0010
0000
1000
0000
0010
0100
0001
0000
,
0010
0000
1000
0000
0001
0010
0100
0000
,
1000
0000
0000
0010
0000
0001
0000
0100
,
0000
0010
0000
1000
0000
0000
0001
0100
,
0000
1000
0000
0001
0000
0100
0000
0010
,
0000
1000
0000
0001
0100
0000
0001
1000
,
0010
0000
0100
0000
0001
0010
0000
1000
,
0000
0001
0010
0100
0001
1000
0000
0010
,
0000
0100
0001
0000
1000
0000
0010
0000
,
0100
0001
0010
0001
,
0100
0000
0000
0010
1000
0100
0000
0001
,
0000
1000
0000
0010
0000
0000
0100
0001
,
1000
0100
0000
0001
0000
0010
0000
0001
,
0000
0100
0000
0010
0000
1000
0000
0001
,
0010
0100
0000
1000
0000
0001
0000
0100
,
0001
0010
0000
0001
1000
0010
0000
0010
,
0001
1000
0100
0000
0110
0000
0000
0000
,
0011
0000
0000
0100
,
1000
0100
0010
0001
0010
0100
0000
1000
,
0000
0001
0000
0010
0000
0100
1000
0001
,
0000
0100
0000
1000
0000
0001
0000
0010
,
0000
0001
0000
0100
0010
0000
1000
0001
,
0010
0000
0100
0000
1000
0001
0000
0100
,
0000
0001
0010
1000
0100
0010
0000
0001
,
0000
0010
1000
0000
0100
0000
0001
0000
,
0010
0100
0010
0001
,
0010
0000
0000
0100
1000
0001
0000
0100
,
0000
0010
0100
1000
0000
0001
0010
0100
,
1000
0000
0100
0001
0000
0010
0000
0100
,
0000
1000
0000
0100
0000
0001
0000
0010
,
1000
0100
0000
0001
0000
0000
0100
0010
,
0000
1000
0000
0100
0001
0010
0000
0100
,
0000
0001
1000
0000
0100
0000
0001
0000
,
0010
0001
0100
0010
,
0100
2000
0000
3002
0000
0023
0000
0230
,
0000
0320
0000
2030
0000
3010
0001
0100
,
0001
0020
0000
2030
0000
3200
0000
0320
,
0000
2030
0000
3002
0000
0103
1000
0010
,
1000
0200
0000
0320
0000
0032
0000
2003
,
0000
3200
0000
0302
0000
0013
1000
0100
,
1000
0020
0000
0230
0000
0302
0000
0203
,
0000
0300
0001
0010
0001
0100
1000
0010
,
1000
0200
0000
0302
0000
0023
0000
2030
,
0000
3020
0000
0032
0000
0013
0001
0100
,
0001
0020
0000
2030
0000
3200
0000
0302
,
0000
0023
0000
2030
0000
3001
1000
0001
,
0100
0002
0000
0023
0000
0230
0000
0320
,
0000
0032
0000
0023
0000
0031
1000
0001
,
0010
0002
0000
0203
0000
2300
0000
3020
,
0000
0030
1000
0001
0100
0001
1000
0010
,
0220
0000
0000
0330
;

//--------------- dance-single - B. M'Rey ----------------
#NOTES:
     dance-single:
     B. M'Rey:
     Hard:
     8:
     0.524,0.512,0.446,0.087,0.034:
0000
0000
0000
0000
,
0000
0000
0000
0000
,
0000
0000
0000
0000
,
0000
0000
0000
0000
,
0000
0000
0000
0000
,
0010
0000
1000
0000
0001
0000
0100
0000
0010
0000
0000
0100
0000
0000
0010
0000
,
0001
0000
0010
0000
0100
0000
0010
0000
0100
0000
0000
1000
0000
0000
0010
0000
,
1000
0000
0001
0000
0100
0000
0010
0000
0100
0000
0000
0010
0000
0000
0100
0000
,
0010
0000
1000
0000
0100
0000
0010
0000
0001
0000
0000
1000
0000
0000
0010
0000
,
1000
0000
0100
0000
0001
0000
0100
0000
1000
0000
0000
1000
0000
0000
1000
0000
,
0010
0000
0100
0000
0001
0000
0100
0000
0010
0000
0000
0010
0000
0000
0010
0000
,
1000
0000
0010
0000
0001
0000
0010
0000
0010
0000
0000
0010
0000
0000
0010
0000
,
1000
0000
0100
0000
1000
0000
0010
0000
0100
0000
0000
0100
0000
0000
0100
0000
,
0010
0000
1000
0000
0100
0000
0001
0000
0100
0000
0000
0100
0000
0000
0100
0000
,
0010
0000
0001
0000
0010
0000
1000
0000
0010
0000
0000
0010
0000
0000
0010
0000
,
0100
0000
0010
0000
0001
0000
1000
0000
0100
0000
0000
0100
0000
0000
0100
0000
,
1000
0100
0001
0010
1000
0100
0001
0010
,
2001
0000
3000
0001
0010
0100
1000
0001
,
1000
0001
0000
0010
0000
0000
0010
0001
,
0200
0000
0310
0100
0000
0001
0000
0100
,
0000
0010
0000
1000
0001
0000
1000
0100
,
0020
0000
0130
0000
1000
0001
0000
0100
,
0000
0001
0100
0010
1000
0100
0000
0010
,
0000
0100
2000
0000
0000
0000
0000
0000
,
0020
0000
3030
0000
,
0011
0000
0000
0001
0010
0001
0010
0100
,
0000
0100
1000
0010
0000
0000
1000
0100
,
0010
0000
0010
0100
0000
1000
0001
1000
,
0000
0001
0000
0100
0000
0010
0000
0010
,
1000
0001
0000
0100
0000
0000
0001
0010
,
0000
0010
0001
0100
0010
1000
0000
0010
,
0000
0010
1000
0000
1001
0000
0000
0000
,
0220
0000
0000
0000
0000
0000
0000
0330
,
0001
0010
0001
0010
0100
1000
0100
1000
,
0001
1000
0010
1000
0001
0000
1001
0000
,
0100
0010
0100
0010
1000
0001
1000
0001
,
0010
0100
0010
0001
0010
0000
1100
0000
,
1000
0100
1000
0100
0010
0001
0010
0001
,
0100
0010
1000
0100
0010
0001
1000
0001
,
1000
0100
0000
1000
0000
1000
0100
0010
,
0001
1000
0000
1000
0000
0001
0010
0100
,
1000
0010
0100
0010
1000
0010
0001
0010
,
1000
0100
0001
0100
1000
0000
0101
0000
,
0001
0010
0001
1000
0001
0100
0001
0010
,
1000
0010
0001
0010
0100
0000
0110
0000
,
1000
0100
1000
0001
1000
0010
1000
0100
,
0001
0100
1000
0010
0100
0000
0101
0000
,
0001
0100
0000
0010
0000
1000
0010
0100
,
0001
1000
0000
0001
0000
0001
0100
0010
,
1000
0100
0000
0110
0000
1001
0000
1010
,
0000
0101
0000
0011
0000
0001
0100
1000
,
0100
0001
0000
0011
0000
1010
0000
1100
,
0000
1001
0000
0110
0000
1000
0010
0001
,
0010
1000
0000
1001
0000
0101
0000
0011
,
0000
1010
0000
1100
0000
0001
0010
1000
,
0010
0001
0000
0011
0000
1100
0000
1001
,
0000
1000
0100
0001
0100
1000
0010
0001
,
0010
1000
0000
0110
0000
1001
0000
0011
,
0000
1100
0000
0101
0000
0001
0100
1000
,
0100
0001
0000
1010
0000
0101
0000
1010
,
0000
1001
0000
0110
0000
0100
0010
0100
,
1000
0100
0000
0011
0000
1100
0000
1001
,
0000
0101
0000
1001
0000
0100
0010
0100
,
0001
0100
0000
1001
0000
0110
0000
0011
,
0000
0001
0010
0100
1000
0100
0010
0001
,
2002
0000
0000
3003
;
