#TITLE:LITTLE KITTY MINE;
#ARTIST:NI-NI;
#GENRE:BUBBLEGUM DANCE;
#CREDIT:B. M'Rey;
#MUSIC:Little Kitty Mine.ogg;
#BANNER:LITTLE KITTY MINE-bn.png;
#BACKGROUND:Little Kitty Mine-bg.png;
#CDTITLE:./CDTITLES/DANCEMANIA SPRINGS 2.PNG;
#SAMPLESTART:49.980;
#SAMPLELENGTH:11.860;
#OFFSET:-0.016;
#BPMS:0.000=139.000;

//--------------- dance-single - B. M'Rey ----------------
#NOTES:
     dance-single:
     B. M'Rey:
     Beginner:
     1:
     0.078,0.113,0.009,0,0:
0000
0000
0000
0000
,
0000
0000
0000
0000
,
0000
0000
0000
0000
,
0000
0000
0000
0000
,
1000
0000
0000
0000
,
0001
0000
0000
0000
,
0010
0000
0000
0000
,
0100
0000
0000
0000
,
0001
0000
0000
0000
,
0010
0000
0000
0000
,
0100
0000
0000
0000
,
0001
0000
0000
0000
,
1000
0000
0000
0000
,
0010
0000
0000
0000
,
1000
0000
0000
0000
,
0100
0000
0000
0000
,
1000
0000
0000
0000
,
0001
0000
0000
0000
,
0010
0000
0000
0000
,
0001
0000
0000
0000
,
0100
0000
0000
0000
,
0010
0000
0000
0000
,
0001
0000
0000
0000
,
0100
0000
0000
0000
,
0010
0000
0000
0000
,
1000
0000
0000
0000
,
0100
0000
0000
0000
,
0001
0000
0000
0000
,
0010
0000
0000
0000
,
0001
0000
0000
0000
,
0100
0000
0000
0000
,
0010
0000
0000
0000
,
1000
0000
0000
0000
,
0100
0000
0000
0000
,
1000
0000
0000
0000
,
0001
0000
0000
0000
,
0010
0000
0000
0000
,
0100
0000
0000
0000
,
0001
0000
0000
0000
,
0010
0000
0000
0000
,
0001
0000
0000
0000
,
1000
0000
0000
0000
,
0010
0000
0000
0000
,
0100
0000
0000
0000
,
0001
0000
0000
0000
,
0010
0000
0000
0000
,
0001
0000
0000
0000
,
0100
0000
0000
0000
,
0010
0000
0000
0000
,
1000
0000
0000
0000
,
0001
0000
0000
0000
,
0100
0000
0000
0000
,
0010
0000
0000
0000
,
1000
0000
0000
0000
,
0001
0000
0000
0000
,
0010
0000
0000
0000
,
0001
0000
0000
0000
,
0100
0000
0000
0000
,
0010
0000
0000
0000
,
0001
0000
0000
0000
,
0010
0000
0000
0000
,
0100
0000
0000
1001
;

//--------------- dance-single - B. M'Rey ----------------
#NOTES:
     dance-single:
     B. M'Rey:
     Easy:
     3:
     0.234,0.254,0.073,0,0:
0000
0000
0000
0000
,
0000
0000
0000
0000
,
0000
0000
0000
0000
,
0000
0000
0000
0000
,
0010
1000
0100
1000
,
0010
0010
0010
0000
,
1000
1000
0010
0100
,
0001
0000
0000
0010
0000
0000
0000
0000
,
0001
0100
0010
1000
,
0010
1000
0110
0000
,
0100
1000
0001
0100
,
0010
0001
1001
0000
,
1000
0010
0100
0001
,
1000
0001
0001
0000
,
0010
0100
0010
0001
,
1000
0000
0000
1000
0000
0000
0000
0000
,
1000
0001
0100
0001
,
0001
0100
0110
0000
,
0001
0010
0001
0000
,
1000
0100
1000
0000
,
1001
0000
0000
0000
,
0010
0010
0010
0000
,
1000
1000
1000
0000
,
0001
0001
0001
0000
,
0010
0010
0010
0000
,
0001
1000
0010
0000
,
0100
0001
1000
0000
,
1000
1000
0100
0000
,
1000
0001
0010
0000
,
0010
0001
0100
0001
,
1000
1000
1000
0000
,
0001
0001
0100
0000
,
0010
0000
0000
0100
0000
0000
0000
0000
,
0001
0010
0001
0000
,
0001
1000
0100
0000
,
1000
0001
1000
0010
,
0100
0000
0001
0000
,
1001
0000
0000
0000
,
0001
0010
0010
0000
,
0001
1000
1000
0000
,
0100
1000
1000
0000
,
0001
0100
0010
0000
,
1000
0001
0010
0000
,
0001
0000
0000
1000
0000
0000
0000
0000
,
1000
0010
0100
0100
,
0010
0000
0000
1001
0000
0000
0000
0000
,
0001
0100
0010
1000
,
0100
0100
1000
0000
,
0010
0100
0001
0001
,
0010
0000
0000
0001
0000
0000
0000
0000
,
1000
1000
0010
0000
,
0100
0000
0110
0000
,
0001
0010
0001
0000
,
1000
0100
1000
0000
,
0001
0000
0001
0000
,
0100
0100
0100
0000
,
0010
0000
0010
0000
,
1000
0000
0000
0100
0000
0000
0000
0000
,
1000
0001
0100
0000
,
0001
0001
0001
0000
,
1000
1000
0010
0010
,
0100
0000
0000
1001
;

//--------------- dance-single - B. M'Rey ----------------
#NOTES:
     dance-single:
     B. M'Rey:
     Medium:
     4:
     0.309,0.339,0.137,0.018,0:
0000
0000
0000
0000
,
0000
0000
0000
0000
,
0000
0000
0000
0000
,
0000
0000
0000
1001
,
0100
0010
1000
0000
0001
0010
0001
0000
,
1000
0100
1000
0000
,
0010
0010
0010
0000
0100
0000
0001
0000
,
0010
0000
0000
0110
0000
0000
0000
0000
,
1000
0100
1000
0010
,
0100
0001
0020
0000
,
0031
0001
0100
0100
,
0010
0100
0010
0000
1001
0000
0000
0000
,
1000
0100
1000
0000
0001
0000
0001
0000
,
0100
0010
1000
0000
,
0001
0010
0001
0000
1000
0000
1000
0000
,
0110
0000
0000
1001
0000
0000
0000
0000
,
0010
0001
0100
0001
,
0010
0100
2000
0000
,
3010
0100
0010
0000
0100
0000
0100
0000
,
0001
0010
0001
0000
1000
0000
0000
0000
,
0011
0000
0000
0000
,
1000
0000
1000
0000
1000
0100
1000
0000
,
0001
0000
0001
0000
0001
0010
0001
0000
,
0100
0000
0100
0000
0001
0010
0000
0010
,
0001
1000
0100
0000
,
1000
0001
0010
0001
,
1000
0000
0010
0100
0000
0000
0000
0000
,
0001
0010
0001
0100
,
0001
0000
0010
0010
0000
0000
0000
0000
,
0001
0100
0010
0000
1000
0000
0100
0000
,
1000
1000
1000
0000
,
0010
0100
0001
0000
0010
0000
0001
0000
,
1000
0000
0000
1100
0000
0000
0000
0000
,
1000
0010
0100
0001
,
0001
0010
0100
0000
,
1000
1000
0010
0010
,
0100
0001
0010
0000
0001
0000
0000
0000
,
1001
0000
0000
0000
,
0001
1000
0001
0000
0100
0000
0000
0000
,
0010
0010
0010
0000
,
0100
0001
0010
0000
0001
0000
0000
0000
,
1000
0100
1000
0100
1000
0000
0000
0000
,
0001
0100
1000
0100
,
0001
0000
0000
1001
0000
0000
0000
0000
,
0100
0001
0010
0010
,
0001
0000
0000
1100
0000
0000
0000
0000
,
0010
0100
0010
0000
1000
0000
0001
0000
,
0010
0010
0010
0000
,
0001
0100
0010
0000
1000
0000
0010
0000
,
0010
0000
0000
0110
0000
0000
0000
0000
,
1000
0010
0100
0001
,
0001
0010
0100
0000
,
1000
0100
1000
0000
0001
0000
1000
0000
,
0010
0100
0001
0000
,
1000
0100
1000
0100
1000
0000
1000
0000
,
0001
0001
0001
0000
,
0100
0010
0100
0010
0100
0000
0001
0000
,
0001
0000
0000
0110
0000
0000
0000
0000
,
1000
0100
1000
0000
0010
0000
0000
0000
,
0100
0010
0100
0000
0001
0000
0000
0000
,
1000
0100
1000
0100
1000
0000
0001
0000
,
0110
0000
1100
1001
;

//--------------- dance-single - B. M'Rey ----------------
#NOTES:
     dance-single:
     B. M'Rey:
     Hard:
     6:
     0,0,0,0,0:
0000
0000
0000
0000
,
0000
0000
0000
0000
,
0000
0000
0000
0000
,
0000
0000
0000
0000
,
0001
0100
1000
0100
0010
0000
0001
0000
,
0100
0000
0010
1000
0010
0000
0000
0000
,
0001
0010
0001
0100
1000
0000
0001
0100
,
0010
0100
0000
1001
0000
0000
0100
0010
,
1000
0000
0000
0000
0001
0000
0000
0010
0000
0000
0001
0000
0000
0000
0000
0000
,
1000
0100
0101
0000
,
1000
1000
0001
0001
0010
0000
0001
0000
,
1000
0010
1010
0000
,
0001
0001
0010
0100
2000
0000
3010
0000
,
0001
0000
0001
0010
0010
0000
0000
0000
,
0001
0001
0010
1000
0200
0000
0301
0100
,
0001
1000
0000
1010
0000
0000
0001
0010
,
1000
0000
0000
0000
0001
0000
0000
0010
0000
0000
0001
0000
0000
0000
0000
0000
,
1000
0000
0100
0010
0001
0000
0000
0000
,
1000
1000
1000
0001
0010
0000
0100
0000
,
0001
0000
0010
0100
0010
0000
0000
0000
,
0002
0000
0000
1003
,
1000
0100
1000
0010
0001
0010
0000
0200
,
0000
1300
0010
0100
0001
0000
0000
0000
,
0010
0001
0010
1000
0001
1000
0000
0001
,
0100
0001
1000
0100
1000
0000
0000
0100
,
0002
0023
0230
2300
,
3200
0000
0301
0100
0000
0000
0000
0001
,
0010
0100
1000
0000
0010
0000
0001
0000
,
1000
0001
1000
0100
0000
0000
0000
0000
,
0001
0001
1000
1000
0010
0100
0010
0000
,
0100
0000
0100
1000
0001
0000
0000
0000
,
1000
1000
0100
0100
0010
0000
1000
0001
,
1000
0010
0000
0110
0000
0000
1000
0001
,
0100
0000
0000
0000
1000
0000
0000
0001
0000
0000
1000
0000
0000
0000
0000
0000
,
0001
0010
0110
0000
,
1000
1000
0001
0001
0100
0000
0010
0000
,
0001
0010
1001
0000
,
0002
0000
0000
0000
0000
0000
1003
0100
,
0100
0001
1000
0001
1000
1000
0000
0100
,
0001
0100
0001
1000
1000
0000
0000
1000
,
0001
0000
1000
0010
0100
0001
0000
0100
,
0010
1000
0100
0010
0100
0000
0001
1000
,
0002
0203
1300
0000
,
0001
0001
0000
1000
0000
0000
0001
0000
,
0010
1000
0010
0000
0100
0001
0100
0000
,
0010
0000
0000
1100
0000
0000
0000
0000
,
0001
1000
0100
1000
0001
0000
0100
0000
,
1000
0000
0001
0010
0100
0000
0000
0000
,
0001
0100
0010
0100
1000
0000
0010
0100
,
0001
1000
0000
1010
0000
0000
1000
0100
,
0010
0000
0000
0000
1000
0000
0000
0001
0000
0000
1000
0000
0000
0000
0000
0000
,
1000
0000
0100
0001
0010
0000
0000
0000
,
0001
1000
0010
1000
0001
1000
0010
0000
,
0001
0000
0100
0001
1000
0000
0000
0000
,
0001
0001
1000
1000
0010
0000
0010
0000
,
0001
0000
0010
1000
0100
0000
0010
0000
,
1000
1000
0001
0001
0010
0000
0010
1000
,
0010
0100
0000
0001
0000
0000
0010
0100
,
0010
0000
0000
0000
1000
0000
0000
0001
0000
0000
1000
0000
0000
0000
0000
0000
,
0010
0000
0010
1000
0100
0000
0000
0000
,
0010
0010
0001
0001
1000
0100
1000
0000
,
0001
0000
1000
0001
0010
0000
1001
0000
;
