#TITLE:LIFELESS;
#ARTIST:小坂りゆ;
#ARTISTTRANSLIT:Kosaka Riyu;
#GENRE:J-POP;
#CREDIT:B. M'Rey;
#MUSIC:lifeless.ogg;
#BANNER:lifeless-bn.png;
#BACKGROUND:lifeless-bg.png;
#CDTITLE:./CDTITLES/DDR LEGACY.PNG;
#SAMPLESTART:68.820;
#SAMPLELENGTH:12.000;
#OFFSET:-0.200;
#BPMS:0.000=150.000;
#STOPS:158.000=1.199,159.000=1.199;

//--------------- dance-single - B. M'Rey ----------------
#NOTES:
     dance-single:
     B. M'Rey:
     Beginner:
     1:
     0,0,0,0,0:
0000
0000
0000
0000
,
0000
0000
0000
0000
,
0000
0000
0000
0000
,
0000
0000
0000
0000
,
0000
0000
0010
0000
,
0000
0000
0100
0000
,
0000
0000
0001
0000
,
0000
0000
0000
0000
,
0000
0000
1000
0000
,
0010
0000
0100
0000
,
0010
0000
1000
0000
,
0001
0000
0010
0000
,
0000
0000
0100
0000
,
0010
0000
1000
0000
,
0001
0000
0010
0000
,
0100
0000
0010
0000
,
0000
0000
1000
0000
,
0000
0000
0001
0000
,
0000
0000
0100
0000
,
0000
0000
0010
0000
,
0000
0000
1000
0000
,
0000
0000
0001
0000
,
0000
0000
0010
0000
,
0000
0000
0000
0000
,
0100
0000
0010
0000
,
1000
0000
0100
0000
,
0001
0000
0010
0000
,
0000
0000
0100
0000
,
0010
0000
1000
0000
,
0001
0000
0010
0000
,
0001
0000
0100
0000
,
0000
0000
0010
0000
,
1000
0000
0001
0000
,
0010
0000
0100
0000
,
0000
0000
1000
0000
,
0010
0000
0100
0000
,
0000
0000
0001
0000
,
0010
0000
0000
0000
,
0000
0000
1000
0000
,
0010
0000
0110
0110
,
0110
0000
0110
0000
,
1001
0000
0000
0000
,
0010
0000
0100
0000
,
0001
0000
0010
0000
,
1000
0000
0010
0000
,
0100
0000
0010
0000
,
0001
0000
0010
0000
,
1000
0000
0010
0000
,
0100
0000
0010
0000
,
1000
0000
0001
0000
,
1001
0000
0010
0000
,
0100
0000
0010
0000
,
1000
0000
0010
0000
,
0100
0000
0001
0000
,
0010
0000
0001
0000
,
1000
0000
0010
0000
,
0100
0000
0010
0000
,
1000
0000
0001
0000
,
1001
0000
0000
0000
,
1001
0000
0000
0000
,
0001
0000
1001
0000
;

//--------------- dance-single - DWI ORIGINAL ----------------
#NOTES:
     dance-single:
     DWI ORIGINAL:
     Easy:
     3:
     0.231,0.35,0.048,0.048,0:
0000
0000
0000
0000
,
0000
0000
0000
0000
,
0000
0000
0000
0000
,
0000
0000
0000
0000
,
0000
0000
1000
0000
,
0000
0000
0010
0000
,
0000
0000
0100
0000
,
0001
0000
0002
0000
,
0000
0003
1000
0010
,
0010
0010
1000
0100
,
0100
0100
0010
0001
,
0001
0100
0010
0000
,
1000
0000
0001
0100
,
0100
0010
1000
1000
,
0100
0000
0001
0000
,
1000
0000
0010
0000
,
0010
0000
0100
0000
,
0001
1000
0001
0000
,
1000
0010
1000
0000
,
0001
0100
0001
0000
,
0010
0100
0010
0000
,
0001
1000
0001
0000
,
1000
0010
1000
0000
,
0001
0000
1000
0010
,
1000
0010
0100
0000
,
0001
0000
0100
0000
,
0010
0000
1000
0000
,
0100
0000
0010
0000
,
0001
0000
1000
0000
,
0100
0000
1000
0000
,
0010
0000
0100
0100
,
0100
0010
1000
0001
,
1000
0000
0010
0100
,
0010
0100
0001
0000
,
1000
0000
0010
0100
,
0010
0100
1000
0000
,
0001
0000
1000
0100
,
0010
0100
1000
0000
,
0001
0000
0100
0010
,
0100
0001
0110
1001
,
0110
1001
0100
0010
,
2002
0000
0000
3003
,
1000
0000
0001
0100
,
0010
0000
1000
0100
,
0010
0000
0001
1000
,
0001
0100
0100
0100
,
0010
0000
1000
0100
,
0010
0000
0001
0100
,
0010
0000
1000
0001
,
0100
0010
0010
1000
,
0100
0000
0001
1000
,
0100
0000
0010
0001
,
0100
0000
0010
1000
,
0001
0001
1000
1000
,
0100
0000
0010
0010
,
0001
0000
0001
0001
,
1000
0000
1000
1000
,
0010
1000
0001
0100
,
0020
0000
0000
0030
,
1000
0000
0001
0000
,
0200
0000
0300
0000
;

//--------------- dance-single - DWI ORIGINAL ----------------
#NOTES:
     dance-single:
     DWI ORIGINAL:
     Medium:
     4:
     0.322,0.296,0.096,0.096,0.014:
0000
0000
0000
0000
,
0000
0000
0000
0000
,
0000
0000
0000
0000
,
0000
0000
0000
0000
,
0000
0000
0000
0000
1000
0000
0000
0010
,
0000
1000
1000
1000
0000
0000
0000
0001
,
0000
0100
0100
0100
0000
0000
0001
0000
,
1000
0000
0100
0000
0020
0000
0000
0200
,
0000
0330
1000
0001
,
0001
0001
0100
0001
,
0001
0001
1000
0001
,
0100
0001
0010
0100
,
1000
1000
1001
0100
,
0010
1000
0100
0010
,
0100
1000
0001
0100
,
0001
0010
0100
0100
,
0100
0100
1000
0001
,
1000
0100
1000
0000
0010
0000
0100
0000
,
0001
0001
1000
0001
,
0100
0000
0010
1000
,
0100
0100
0001
1000
,
0100
0010
0100
1000
,
0010
0100
0010
0000
1000
0000
0010
0010
,
0000
0100
0100
0000
0001
0000
1000
0000
,
0100
0010
0002
1000
,
0100
1003
2000
0010
,
0100
3001
0020
0100
,
1000
0130
0200
1000
,
0010
0000
0301
0000
0001
0000
1000
1000
,
0000
0010
0010
0000
0100
0100
0000
0001
,
0000
1000
1000
0000
0010
0000
0100
0000
,
0001
0000
1000
0010
,
0220
0330
1000
0001
,
1000
0000
0010
0000
0100
0001
0000
0001
,
0000
0001
0000
0000
1000
0000
0100
0000
,
0010
0000
0100
0000
1000
0010
0000
0010
,
0000
0010
0000
0000
1000
0000
0000
0000
,
0001
0100
0010
1000
,
0000
0001
0100
0010
,
1000
0001
0110
1001
,
0100
0000
0010
0000
1000
0001
1000
0001
,
2000
0000
0001
3001
,
0010
1000
0100
0000
,
0010
0001
0100
0000
,
0010
1000
0001
1000
,
0001
0100
0010
1000
,
0100
0000
0010
0001
,
0100
0000
0010
1000
,
0100
0010
0100
0010
,
0001
0001
0000
0000
1000
0000
0010
0000
,
0110
0000
0001
1000
,
0110
0000
1000
0001
,
0110
1000
0001
0100
,
0010
1000
1000
1000
,
1001
0000
0100
0010
,
1010
0000
0100
0001
,
0101
0000
1000
0010
,
1000
0001
0100
0010
,
2000
0000
0000
3000
,
0010
0000
0000
0100
0000
0000
0010
0000
0000
0100
0000
0000
0001
0000
1000
0000
,
0100
0000
0000
0010
0000
0000
0100
0000
0000
0000
0000
0000
0000
0000
0000
0000
;

//--------------- dance-single - DWI ORIGINAL ----------------
#NOTES:
     dance-single:
     DWI ORIGINAL:
     Hard:
     7:
     0.506,0.484,0.173,0.106,0.188:
0000
0000
0000
0000
,
0000
0000
0000
0000
,
0000
0000
0000
0000
,
0000
0000
0000
0000
,
0000
0000
0000
0000
0110
0000
1000
0001
,
0000
0001
0100
0010
1000
0000
1000
0100
,
0000
0010
0001
0100
0020
0000
1000
0000
,
0230
0000
0001
0000
0020
0000
0330
1000
,
0000
0001
0000
0000
1000
0000
0010
0000
0100
0000
0000
0001
0000
0000
0010
0000
,
0000
0100
0000
0000
0100
0000
0000
0000
1000
0000
0000
0001
0000
0000
0100
0000
,
0000
0010
0000
0000
0010
0000
0000
0000
1000
0000
0000
0010
0000
0000
1000
0000
,
0010
0000
0000
0100
0000
0000
0010
0000
1000
0000
0000
0010
0000
0000
0100
0000
,
0000
0010
0000
0000
1000
0000
0100
0000
0010
0000
0000
0001
0000
0000
0001
0000
,
0000
0100
0000
0000
0010
0000
0000
0000
1000
0000
0000
0100
0000
0000
0100
0000
,
0000
0010
0000
0000
0001
0000
0100
0000
0010
0000
0000
1000
0000
0000
0010
0000
,
0000
1000
0000
0000
0100
0000
0010
0000
0001
0000
0000
0001
0000
0000
0100
0000
,
0000
0100
0000
0000
0010
0000
1000
0000
0100
0000
0000
0000
1001
0000
0000
0000
,
0100
0010
1000
0100
0000
1000
0000
0010
,
0100
0010
0000
1000
0100
0000
1100
0000
,
0100
0010
0001
0100
0000
0010
1000
0100
,
0000
0010
0010
0000
0001
0000
1001
0000
,
0100
0010
1000
0100
0000
0010
0000
0001
,
0100
0001
0000
1000
0100
0000
0100
0010
,
0000
0000
0010
0000
0001
0000
0000
0000
1000
0001
1000
0000
0001
1000
0001
0000
,
0100
0010
1000
0100
0010
0000
0001
1000
,
0001
0100
0010
1000
0000
0001
0000
1000
,
0100
1000
0000
0010
0100
0000
1001
0000
,
0100
0010
1000
0100
0010
0001
0100
0010
,
0000
1000
0001
0100
0010
0000
2000
0001
,
3000
0002
0100
0003
0200
0010
0300
0010
,
1000
1000
0100
0010
0100
0000
0110
0000
,
1000
0001
0100
0010
1000
2000
0001
0002
,
0000
0000
3003
0100
0010
1000
0100
1000
,
0010
0100
0010
0000
1000
0000
0000
0000
0001
0000
0100
0000
0000
0000
0010
0000
,
0000
1000
0100
0010
0100
1000
0010
0100
,
0001
0010
0001
0000
0100
0000
0000
0000
0010
0000
1000
0000
0000
0000
0001
0000
,
0000
0100
0010
1000
0100
0000
0010
0001
,
0000
0001
0100
0000
0010
0000
1000
0000
,
0001
0100
0010
1000
0100
0000
0010
0001
,
0000
0001
0100
0010
1001
0000
0110
0000
,
1010
0000
0101
0000
1000
0001
0100
0001
,
0220
0000
0330
1000
0000
0001
0100
0010
,
0010
0000
1000
0100
0010
0001
0010
1000
,
1000
0000
0010
0001
0100
0010
1000
0100
,
0100
0000
0010
0001
1000
0100
0010
0001
,
0000
1000
0100
1000
0000
0010
0100
0001
,
0001
0000
0010
0100
1000
0010
0100
0001
,
0001
0000
1000
0100
1000
0010
0100
0010
,
0010
0000
1000
0001
0100
0010
1000
0100
,
0010
0010
0000
1001
0000
0100
0010
1000
,
0100
0000
0000
0010
0000
0000
0001
0000
0000
0001
0000
0000
0100
0000
0010
0000
,
1000
0000
0000
1000
0000
0000
0100
0000
0000
1000
0000
0000
0010
0000
0100
0000
,
0001
0000
0000
0001
0000
0000
0001
0000
0010
0000
0000
0010
0000
0000
0010
0000
,
0100
1000
0010
0100
0000
0100
0010
1000
,
0100
0000
0000
0010
0000
0000
0001
0000
0000
0100
0000
0000
0010
0000
1000
0000
,
0001
0000
0000
0100
0000
0000
0001
0000
0000
1000
0000
0000
0100
0000
1000
0000
,
0010
0000
0000
0100
0000
0000
0001
0000
0000
1000
0000
0000
0100
0000
0010
0000
,
0001
0000
0010
0000
0001
0000
1000
0000
0000
0001
0000
0000
1000
0000
0010
0000
,
0200
0000
0000
0001
0000
0000
0001
0000
0000
0001
0000
0000
0301
0000
1000
0000
,
0100
0000
0000
0110
0000
0000
1001
0000
0000
0110
0000
0000
1000
0000
0001
0000
,
0101
0000
0000
1010
0000
0000
0101
0000
0000
0000
0000
0000
0000
0000
0000
0000
;

//--------------- dance-single - B. M'Rey ----------------
#NOTES:
     dance-single:
     B. M'Rey:
     Challenge:
     9:
     0,0,0,0,0:
0000
0000
0000
0000
,
0000
0000
0000
0000
,
0000
0000
0000
0000
,
0000
0000
0000
0000
,
0000
0000
0000
0000
1001
0000
0010
0100
,
0000
0001
0010
1000
0010
0000
0100
0010
,
0000
0001
1000
0010
0100
0000
0010
0001
,
1000
0000
0000
0000
0010
0000
0100
0000
0010
0000
0000
0100
0000
0000
0010
0000
,
0000
1000
0000
0000
0001
0000
0010
0000
0001
0000
0001
0010
0001
0000
0100
0010
,
0000
1000
0001
0000
0001
0000
0100
0000
0001
0000
0100
1000
0100
0000
0001
1000
,
0000
0010
0001
0000
0010
1000
0010
0000
0010
0000
0001
0010
0100
0000
0100
0000
,
0001
0000
0001
0010
0100
0000
0010
0000
0001
0000
0010
0100
0010
0000
0001
1000
,
0000
0010
0100
0000
0001
1000
0100
0000
0100
0000
0100
1000
0001
0000
0001
0100
,
0000
0100
0010
0000
0010
0100
0010
0000
0100
0000
0001
0100
0010
0000
0001
0100
,
0000
1000
0010
0000
0010
0100
0001
0000
0100
1000
0100
0000
0100
0000
0001
0000
,
0001
1000
0010
0000
0001
0000
0010
0000
0001
0010
0001
0000
0010
0000
0001
1000
,
0000
1000
0001
0000
0100
0010
0100
0000
0010
0000
0100
0000
0001
0000
1000
0000
,
0100
1000
0010
0100
0001
0100
0001
0010
,
0100
1000
0010
1000
0001
1000
0001
0100
,
0001
1000
0010
0100
0010
1000
0001
1000
,
0010
1000
0100
0010
0100
0010
0001
0010
,
0100
1000
0010
1000
0100
1000
0100
0010
,
0001
0100
0001
1000
0001
1000
0100
1000
,
0100
0000
0010
0000
0100
0000
0010
0000
0001
1000
0010
0000
0001
0010
0100
0000
,
0001
1000
0100
0000
0010
0001
0100
0000
0011
0000
0010
0000
0001
0000
0010
0000
,
0001
1000
0010
1000
0100
0010
0100
0010
,
0100
1000
0010
0100
0010
0100
0010
1000
,
0100
0010
0001
0100
0010
1000
0010
0100
,
0001
0010
0100
0010
0100
1000
0010
1000
,
0100
1000
0001
0100
0001
1000
0001
0010
,
0100
1000
0100
0010
0001
1000
0010
0100
,
0010
0100
0010
1000
0100
1000
0010
1000
,
0100
0010
0100
1000
1001
0100
0010
1000
,
0100
1000
0010
1000
0100
0020
0000
0001
,
0030
0100
0001
0100
0010
0100
0010
1000
,
0010
1000
0100
0010
0100
2000
0000
0100
,
3000
0100
0010
1000
0100
0010
0001
0100
,
0001
0100
0001
0010
0100
0010
0001
0010
,
0001
0100
0001
1000
0100
0010
0001
0010
,
0100
0010
0100
1000
1001
0000
0110
0000
,
0101
0000
1010
0000
0110
0110
0110
0110
,
0110
0000
0000
0002
0000
1003
0010
0100
,
0001
0100
0001
0100
0001
1000
0100
1000
,
0100
1000
0010
0100
0010
0100
0010
1000
,
0001
1000
0100
1000
0100
0010
0100
0010
,
0001
0010
0001
1000
0001
1000
0010
1000
,
0100
0010
0100
0010
0100
1000
0010
1000
,
0100
0010
0100
0010
0100
1000
0010
1000
,
0010
1000
0001
0010
0001
0010
0100
0010
,
0100
1000
0100
1000
0010
1000
0010
0100
,
0010
0100
0001
0100
0001
0010
0001
1000
,
0100
1000
0100
1000
0001
0100
0001
0100
,
0001
1000
0100
1000
0001
1000
0010
0100
,
0010
0100
0001
1000
0001
1000
0001
0010
,
0100
0010
0100
1000
0100
1000
0010
0100
,
0010
0100
0010
1000
0001
1000
0001
1000
,
0100
0010
0100
0010
0100
1000
0001
1000
,
0001
0000
1000
0000
0010
0000
0100
0000
0000
0010
0000
0000
0100
0000
1001
0000
,
0110
0000
0000
0001
0000
0000
0010
0000
0000
0100
0000
0000
1000
0000
0101
0000
,
1001
0000
0000
0110
0000
0000
0101
0000
0000
0110
0000
0000
1010
0000
0101
0000
,
1010
0000
0000
0110
0000
0000
0101
0000
0000
0000
0000
0000
0000
0000
0000
0000
;
