#VERSION:0.83;
#TITLE:LET ME BE;
#ARTIST:TALEESA;
#GENRE:ITALODANCE;
#CREDIT:B. M'Rey;
#MUSIC:LET ME BE.ogg;
#BANNER:Let Me Be.png;
#BACKGROUND:Let Me Be-bg.png;
#CDTITLE:./CDTITLES/DANCEMANIA 23 (Future Overload).PNG;
#SAMPLESTART:53.499;
#SAMPLELENGTH:15.000;
#OFFSET:-0.040;
#BPMS:0.000=143.578;

//--------------- dance-single - B. M'Rey ----------------
#NOTEDATA:;
#STEPSTYPE:dance-single;
#DESCRIPTION:B. M'Rey;
#DIFFICULTY:Beginner;
#METER:3;
#RADARVALUES:0.138675,0.235452,0.030981,0.020654,0,94,91,3,2,0,0,0.138675,0.235452,0.030981,0.020654,0,94,91,3,2,0,0;
#NOTES:
0000
0000
0000
0000
,
0000
0000
0000
0000
,
0000
0000
0000
0000
,
0000
0000
0000
0000
,
0001
0000
0000
0000
,
1000
0000
0000
0000
,
0010
0000
0000
0000
,
1001
0000
0000
0000
,
1000
0000
0001
0000
,
0010
0000
0100
0000
,
0010
0000
1000
0000
,
0001
0000
0010
0000
,
0001
0000
0100
0000
,
1000
0000
0010
0000
,
0001
0000
1000
0000
,
0010
0000
1001
1001
,
0010
0000
0000
0000
,
1000
0000
0000
0000
,
0001
0000
0000
0000
,
0010
0000
0000
0000
,
0001
0000
0000
0000
,
0100
0000
0000
0000
,
1000
0000
0000
0000
,
0010
0000
0000
0000
,
1000
0000
0000
0000
,
0100
0000
0000
0000
,
0001
0000
0000
0000
,
0010
0000
0000
0000
,
0001
0000
0000
0000
,
1000
0000
0000
0000
,
0100
0000
0000
0000
,
1000
0000
0000
0000
,
0010
0010
0000
0001
,
0001
0001
0001
0001
,
1000
1000
0000
0010
,
0010
0000
0000
0000
,
0010
0010
0000
0001
,
0001
0001
0001
0001
,
1000
1000
0000
0010
,
0100
0000
0000
0000
,
0020
0000
0000
0000
,
1030
0000
0001
0000
,
0010
0000
0100
0000
,
0010
0000
1000
0000
,
0001
0000
0010
0000
,
0001
0000
0100
0000
,
1000
0000
0010
0000
,
0001
0000
1000
0000
,
0010
0000
0001
0000
,
1000
0000
0001
0000
,
0010
0000
0100
0000
,
0010
0000
1000
0000
,
0001
0000
0010
0000
,
0001
0000
0100
0000
,
1000
0000
0010
0000
,
0001
0000
1000
0000
,
0020
0000
0000
0000
,
0030
0000
0000
0000
;

//--------------- dance-single - B. M'Rey ----------------
#NOTEDATA:;
#STEPSTYPE:dance-single;
#DESCRIPTION:B. M'Rey;
#DIFFICULTY:Easy;
#METER:5;
#RADARVALUES:0.243418,0.264884,0.010327,0.103268,0,165,164,1,10,0,0,0.243418,0.264884,0.010327,0.103268,0,165,164,1,10,0,0;
#NOTES:
0000
0000
0000
0000
,
0000
0000
0000
0000
,
0000
0000
0000
0000
,
0000
0000
0000
0000
,
0001
0000
0100
0010
,
0001
0000
0001
0100
,
1000
0000
1000
0010
,
2000
0000
0000
0000
,
3001
0001
0001
0001
,
1000
1000
1000
1000
,
0100
0100
0100
0100
,
0010
0010
0010
0010
,
0001
0001
0001
0001
,
0010
0010
0010
0010
,
1000
1000
1000
1000
,
0020
0000
0000
0000
,
0130
0000
0010
0000
,
1000
0000
0100
0000
,
0100
0000
0010
0000
,
0010
0000
0100
0000
,
1000
0000
0100
0000
,
0010
0000
1000
0000
,
0010
0000
0100
0000
,
0100
0000
0010
0000
,
0001
0001
1000
0000
,
0010
1000
0001
0000
,
0010
0100
1000
0000
,
0001
0010
2000
3002
,
0103
0100
1000
0000
,
0010
0001
1000
0000
,
0001
0010
1000
0000
,
1000
0010
2000
3002
,
0103
0100
0000
0010
,
0010
0100
1000
0100
,
0001
0001
0000
0001
,
0010
0100
0002
0000
,
1003
1000
0000
0010
,
1000
0100
0001
0100
,
0001
0001
0000
1000
,
2000
0000
0000
0000
,
3200
0000
0000
0000
,
0301
0001
0001
0001
,
1000
1000
1000
1000
,
0100
0100
0100
0100
,
0010
0010
0010
0010
,
0001
0001
0001
0001
,
0010
0010
0010
0010
,
1000
1000
1000
1000
,
0020
0000
0000
0000
,
0031
0001
0001
0001
,
1000
1000
1000
1000
,
0100
0100
0100
0100
,
0010
0010
0010
0010
,
0001
0001
0001
0001
,
0010
0010
0010
0010
,
1000
1000
1000
1000
,
0000
0000
0000
0000
,
1001
0000
0000
0000
;

//--------------- dance-single - B. M'Rey ----------------
#NOTEDATA:;
#STEPSTYPE:dance-single;
#DESCRIPTION:B. M'Rey;
#DIFFICULTY:Medium;
#METER:8;
#RADARVALUES:0.424876,0.500336,0.020654,0.123922,0,288,286,2,12,0,0,0.424876,0.500336,0.020654,0.123922,0,288,286,2,12,0,0;
#NOTES:
0000
0000
0000
0000
,
0000
0000
0000
0000
,
0000
0000
0000
0000
,
0000
0000
0000
0000
,
0001
0100
0010
1000
,
0100
1000
0001
0010
,
0001
1000
0001
1000
,
0110
0000
0000
0000
,
0001
1000
0001
0000
0100
0000
0100
0000
,
0100
0010
0001
0000
0001
0000
0001
0000
,
0100
1000
0100
0000
0100
0010
0001
0000
,
0001
0100
0001
0000
0010
0100
0010
1000
,
0010
1000
0001
0000
0001
0000
0001
0000
,
0100
1000
0100
0000
0001
0000
0001
0000
,
0001
1000
0010
0000
0010
0100
0010
0000
,
0002
0000
0000
0000
,
1003
0000
0001
1000
0001
0000
0100
0000
,
0100
0000
0000
1000
0000
0000
0010
0100
,
0001
0000
0001
0000
0010
0000
0010
0100
,
0000
0000
0000
0100
0010
0000
0020
0000
,
0030
0000
0001
0100
0001
0000
0001
0000
,
0100
0010
0000
1000
0000
0000
0000
0000
,
0001
0000
0001
0000
0010
0100
0010
0100
,
0010
0000
0100
0100
,
0001
0010
0001
0000
0010
0000
0010
0100
,
0000
0000
0010
1000
0000
1000
0000
0010
,
0000
0001
0100
0000
0000
1000
0010
1000
,
0000
0010
0001
0000
0001
0000
0100
0000
,
0001
1000
0001
0000
0100
0000
0100
0010
,
0000
0000
0001
1000
0000
1000
0000
0100
,
0000
0100
0010
0000
0000
1000
0001
0100
,
0001
1000
0100
1100
,
0001
1000
0001
0000
0000
0010
0100
0010
,
0000
0100
0001
0000
0001
0000
0010
0000
,
0010
0100
0001
0000
0000
1000
0001
0100
,
0000
0000
0000
0100
0001
0000
0001
0000
,
0001
1000
0100
0000
0000
1000
0010
0100
,
0000
0100
0010
0000
0100
0000
0100
0000
,
0010
0100
0010
0000
0000
1000
0001
1000
,
0020
0000
0000
0000
,
2030
0000
0000
0000
0000
0000
0000
3000
,
0001
1000
0001
0000
0100
0000
0100
0000
,
0100
0010
0001
0000
0001
0000
0001
0000
,
0100
1000
0100
0000
0100
0010
0001
0000
,
0001
0100
0001
0000
0010
0100
0010
1000
,
0010
1000
0001
0000
0001
0000
0001
0000
,
0100
1000
0100
0000
0001
0000
0001
0000
,
0001
1000
0010
0000
0010
0100
0010
0000
,
1001
0101
0110
1001
,
1000
0001
1000
0000
0100
0000
0100
0000
,
0100
0010
1000
0000
1000
0000
1000
0000
,
0100
0001
0100
0000
0100
0010
1000
0000
,
1000
0100
1000
0000
0010
0100
0010
0001
,
0010
0001
1000
0000
1000
0000
1000
0000
,
0100
0001
0100
0000
1000
0000
1000
0000
,
1000
0001
0010
0000
0010
0100
0010
0000
,
2000
0000
0000
0000
,
3000
0000
0000
0000
;

//--------------- dance-single - B. M'Rey ----------------
#NOTEDATA:;
#STEPSTYPE:dance-single;
#DESCRIPTION:B. M'Rey;
#DIFFICULTY:Hard;
#METER:14;
#RADARVALUES:0,0,0,0,0;
#NOTES:
0000
0000
0000
0000
,
0000
0000
0000
0000
,
0000
0000
0000
0000
,
0000
0000
0000
0000
,
0001
0010
0001
0100
0010
0100
0001
1000
,
0100
1000
0001
1000
0010
0100
0010
0100
,
0010
1000
0001
0100
0010
0100
0001
1000
,
1001
0000
0000
0000
,
0010
0000
0001
0000
0001
0000
0001
0100
0000
0100
0000
1000
0001
0000
0001
0010
,
0100
0000
0001
0000
0010
0000
0100
0010
0000
0010
0000
0010
0100
0000
0001
0010
,
0001
0000
0010
0000
0100
0000
0001
0010
0000
1000
0000
0100
0001
0000
0001
0100
,
0001
0000
0010
0000
0010
0000
0010
1000
0000
0010
0000
0010
0001
0100
0001
1000
,
0001
0000
0100
0000
0010
0000
0001
1000
0000
0100
0000
0100
0010
0000
0010
0100
,
0010
0000
0100
0000
0010
0000
0001
0010
0000
0010
0000
1000
0100
0000
0001
0100
,
0010
0000
0010
0000
0001
0000
0001
1000
0000
1000
0000
0100
0001
0000
0010
0100
,
0001
0000
0100
0000
0010
0000
0010
1000
0000
1000
0000
1000
0100
0000
0010
0000
,
0001
0000
0010
0100
0001
0000
0001
1000
,
0010
1000
0000
0100
0000
0000
0000
0100
,
0010
0000
0100
0000
0001
0100
0010
1000
,
0000
0000
0000
1000
0100
0000
0002
0000
,
0003
0000
0010
0100
0001
0000
1001
0000
,
0001
0100
0000
0100
0000
0000
0000
1000
,
0010
1000
0010
0100
0001
0100
0001
0100
,
0000
0000
0000
1000
0001
0000
0010
0000
,
0100
1000
0001
0000
0100
0010
0001
0020
,
0000
0000
0001
0031
0000
0010
0001
0100
,
0000
1000
0010
0000
0000
1000
0100
2000
,
0000
3100
0001
1000
0010
0000
0100
0000
,
0010
1000
0001
0000
0001
0100
0001
0200
,
0000
0000
0301
0100
0000
0100
0010
1000
,
0000
1000
0010
0000
0000
0100
0001
0010
,
0000
1000
0100
1000
1001
0000
1001
0000
,
0010
0100
0010
0000
0000
1000
0100
0010
,
0000
1000
0010
0100
0010
0001
0100
0010
,
0100
0010
0200
0000
0300
0010
0100
0020
,
0000
0030
0000
0001
0011
0000
1100
0000
,
0100
1000
0100
0000
0000
1000
0001
1000
,
0001
0100
0001
1000
0100
0010
0100
0010
,
0001
0100
0010
0000
0000
0010
0100
0010
,
0000
0100
0001
0100
1000
0000
0001
0000
,
1001
0000
0000
0000
,
0010
0000
0001
0000
0001
0000
0001
0100
0000
0100
0000
1000
0001
0000
0001
0010
,
0100
0000
0001
0000
0010
0000
0100
0010
0000
0010
0000
0010
0100
0000
0001
0010
,
0001
0000
0010
0000
0100
0000
0001
0010
0000
1000
0000
0100
0001
0000
0001
0100
,
0001
0000
0010
0000
0010
0000
0010
1000
0000
0010
0000
0010
0001
0100
0001
1000
,
0001
0000
0100
0000
0010
0000
0001
1000
0000
0100
0000
0100
0010
0000
0010
0100
,
0010
0000
0100
0000
0010
0000
0001
0010
0000
0010
0000
1000
0100
0000
0001
0100
,
0010
0000
0010
0000
0001
0000
0001
1000
0000
1000
0000
0100
0001
0000
0010
0100
,
0001
0000
0100
0000
0010
0000
0010
1000
0000
1000
0000
1000
0100
0000
0010
0000
,
0100
0000
1000
0000
1000
0000
1000
0010
0000
0010
0000
0001
1000
0000
1000
0100
,
0010
0000
1000
0000
0100
0000
0010
0100
0000
0100
0000
0100
0010
0000
1000
0100
,
1000
0000
0100
0000
0010
0000
1000
0100
0000
0001
0000
0010
1000
0000
1000
0010
,
1000
0000
0100
0000
0100
0000
0100
0001
0000
0100
0000
0100
1000
0010
1000
0001
,
1000
0000
0010
0000
0100
0000
1000
0001
0000
0010
0000
0010
0100
0000
0100
0010
,
0100
0000
0010
0000
0100
0000
1000
0100
0000
0100
0000
0001
0010
0000
1000
0010
,
0100
0000
0100
0000
1000
0000
1000
0001
0000
0001
0000
0010
1000
0000
0100
0010
,
1000
0000
0010
0000
0100
0000
0100
0001
0000
0001
0000
0001
0010
0000
0100
0000
,
1000
0000
0000
0000
;
