#TITLE:LADY (HEAR ME TONIGHT);
#ARTIST:MODJO;
#GENRE:HOUSE;
#CREDIT:B. M'Rey;
#MUSIC:Lady (Hear Me Tonight).ogg;
#BANNER:LADY (HEAR ME TONIGHT)-BN.png;
#BACKGROUND:LADY (HEAR ME TONIGHT)-Bg.png;
#CDTITLE:./CDTITLES/ZIPMANIA 02.PNG;
#SAMPLESTART:23.001;
#SAMPLELENGTH:12.000;
#OFFSET:-0.225;
#BPMS:0.000=126.012;

//--------------- dance-single - B. M'Rey ----------------
#NOTES:
     dance-single:
     B. M'Rey:
     Beginner:
     1:
     0,0,0,0,0:
0000
0000
0000
0000
,
0000
0000
0000
0000
,
0000
0000
0000
0000
,
0000
0000
0000
0000
,
1000
0000
0000
0000
,
0001
0000
0000
0000
,
0100
0000
0000
0000
,
0010
0000
0000
0000
,
1000
0000
0000
0000
,
0001
0000
0000
0000
,
0010
0000
0000
0000
,
0001
0000
0000
0000
,
1000
0000
0010
0000
,
0100
0000
1000
0000
,
0001
0000
0010
0000
,
0001
0000
0100
0000
,
0110
0000
1000
0000
,
0001
0000
0010
0000
,
0100
0000
0001
0000
,
1000
0000
0000
0000
,
0010
0000
0100
0000
,
0001
0000
1000
0000
,
0010
0000
0100
0000
,
0001
0000
1000
0000
,
1001
0000
0010
0000
,
0100
0000
1000
0000
,
0001
0000
1000
0000
,
0010
0000
0100
0000
,
0001
0000
0000
1000
,
0001
0000
0000
0100
,
0010
0000
0000
0001
,
0010
0000
0000
1000
,
0100
0000
0000
0010
,
0100
0000
0000
0001
,
0010
0000
0000
1000
,
0001
0000
0000
0100
,
0010
0000
0000
0001
,
0010
0000
0000
1000
,
0100
0000
0000
0001
,
0010
0000
0000
0100
,
0010
0000
0000
1000
,
0001
0000
0000
0100
,
0001
0000
1000
0000
,
0010
0000
0100
0000
,
1001
0000
0000
0000
;

//--------------- dance-single - B. M'Rey ----------------
#NOTES:
     dance-single:
     B. M'Rey:
     Easy:
     2:
     0,0,0,0,0:
0000
0000
0000
0000
,
0000
0000
0000
0000
,
0000
0000
0000
0000
,
0000
0000
0000
0000
,
0001
1000
0010
1000
,
0010
1000
0001
0100
,
0001
0100
0001
0010
,
0100
0010
0100
0010
,
0001
1000
0001
1000
,
0001
0010
0100
0010
,
0100
1000
0100
1000
,
0001
1000
0001
0010
,
0001
0000
0100
0010
,
0100
0000
0100
1000
,
0010
0000
0010
0100
,
0010
0000
0001
0100
,
0001
0000
0001
1000
,
0010
0000
0010
0100
,
0010
0000
0001
0100
,
0010
1000
0000
1000
,
0001
1000
0000
0100
,
0010
0100
0000
1000
,
0001
0010
0000
0100
,
0001
0100
0000
0100
,
0010
0000
0010
1000
,
0100
0000
0001
0100
,
0001
0100
0001
1000
,
0100
1000
0100
1000
,
0001
0100
0001
0100
,
0001
1000
0100
1000
,
0100
1000
0010
0100
,
0010
0100
0010
1000
,
0001
1000
0010
1000
,
0010
0100
0001
0100
,
0001
0100
0010
1000
,
0010
1000
0010
0100
,
0001
0100
0001
0100
,
0010
1000
0001
1000
,
0010
1000
0010
0100
,
0010
0100
0001
0100
,
0010
1000
0010
1000
,
0001
1000
0010
0100
,
0010
0000
0010
1000
,
0001
0010
0100
0000
,
0110
0000
0000
0000
;

//--------------- dance-single - B. M'Rey ----------------
#NOTES:
     dance-single:
     B. M'Rey:
     Medium:
     5:
     0,0,0,0,0:
0000
0000
0000
0000
,
0000
0000
0000
0000
,
0000
0000
0000
0000
,
0000
0000
0000
0000
,
0100
0000
0010
0000
0000
0000
1000
0000
0000
0100
0000
0000
0010
0000
0000
0000
,
0010
0000
0100
0000
0000
0000
0010
0000
0000
0010
0000
0000
0100
0000
0000
0000
,
0001
0000
0100
0000
0000
0000
0010
0000
0000
0001
0000
0000
0100
0000
0000
0000
,
0100
0000
0010
0000
0000
0000
0010
0000
0000
0100
0000
0000
0100
0000
0000
0000
,
0001
0000
0010
0000
0000
0000
0010
0000
0000
0100
0000
0000
0010
0000
0000
0000
,
0001
0000
0100
0000
0000
0000
0010
0000
0000
0001
0000
0000
0100
0000
0000
0000
,
0001
0000
0010
0000
0000
0000
0001
0000
0000
0100
0000
0000
0001
0000
0000
0000
,
0001
0000
0010
0000
0000
0000
1000
0000
0000
0100
0000
0000
0010
0000
0000
0000
,
1001
0000
0000
1001
0000
0000
0100
0000
0001
0000
0010
0000
0000
0010
0000
0000
,
0100
0000
0000
0010
0000
0000
1000
0000
0001
0000
1000
0000
0000
0001
0000
0000
,
0100
0000
0000
0010
0000
0000
0010
0000
0001
0000
1000
0000
0000
0100
0000
0000
,
0100
0000
0000
1000
0000
0000
0010
0000
0001
0000
0010
0000
0000
0001
0000
0000
,
1010
0000
0000
0000
0010
0000
1000
0000
0000
0000
0100
0000
0000
0001
0000
0000
,
0001
0000
0000
1000
0000
0000
1000
0000
0100
0000
1000
0000
0000
0001
0000
0000
,
0100
0000
0000
0000
0010
0000
1000
0000
0000
0000
0010
0000
0000
0001
0000
0000
,
0001
0000
0000
0010
0000
0000
1000
0000
0100
0000
0010
0000
0100
0000
0000
0000
,
1001
0000
0000
1001
0000
0000
0010
0000
0001
0000
0100
0000
0000
0010
0000
0000
,
0010
0000
0000
0100
0000
0000
1000
0000
0001
0000
1000
0000
0000
0010
0000
0000
,
0001
0000
0000
0100
0000
0000
0100
0000
0001
0000
1000
0000
0000
0100
0000
0000
,
0100
0000
0000
0010
0000
0000
1000
0000
0001
0000
1000
0000
0000
0001
0000
0000
,
0010
0000
0100
0000
0000
0000
0100
0000
0001
0000
1000
0000
0000
0001
0000
0000
,
0100
0000
0000
1000
0000
0000
0010
0000
0100
0000
0010
0000
0000
0001
0000
0000
,
0001
0000
0000
1000
0000
0000
1000
0000
0100
0000
0000
0100
0000
0000
0010
0000
,
0100
0000
0000
1000
0000
0000
0010
0000
0001
0000
0000
0010
0000
0000
1000
0000
,
0001
1000
0001
1000
0001
0010
0100
0000
,
0001
0010
0001
0100
0001
0100
0010
0000
,
0010
1000
0010
1000
0100
1000
0001
0000
,
0001
0100
0001
1000
0100
1000
0001
0000
,
0001
0100
0001
1000
0010
1000
0100
0000
,
0100
0010
0100
0010
0001
0010
0001
0000
,
0001
0100
0010
0100
0010
1000
0010
0000
,
0001
1000
0001
0010
0001
0010
0100
0000
,
0100
1000
0001
1000
0010
0100
0010
0000
,
0010
1000
0100
1000
0100
1000
0010
0000
,
0010
0100
0010
1000
0001
1000
0010
0000
,
0001
0100
0010
1000
0001
0010
0001
0000
,
0001
1000
0100
1000
0001
1000
0001
0000
,
0001
0010
0100
0010
0100
1000
0100
0000
,
0001
0010
0100
0010
0100
1000
0100
0000
,
0010
1000
0010
0100
0010
0000
0100
0000
,
1001
0000
0000
0000
;

//--------------- dance-single - B. M'Rey ----------------
#NOTES:
     dance-single:
     B. M'Rey:
     Hard:
     7:
     0,0,0,0,0:
0000
0000
0000
0000
,
0000
0000
0000
0000
,
0000
0000
0000
0000
,
0000
0000
0000
0000
,
0001
0000
1000
0000
0001
0000
1000
0000
0001
0000
0100
0000
0010
0100
0000
0000
,
0010
0000
0100
0000
0001
0000
0010
0000
0001
0000
0010
0000
0001
1000
0000
0000
,
0010
0000
1000
0000
0010
0000
1000
0000
0100
0000
0010
0000
0100
0010
0000
0000
,
0100
0000
1000
0000
0010
0000
1000
0000
0010
0000
1000
0000
0100
0010
0000
0000
,
0100
0000
0010
0000
0100
0000
1000
0000
0010
0000
1000
0000
0010
1000
0000
0000
,
0001
0000
0100
0000
0001
0000
0100
0000
0001
0000
1000
0000
0100
1000
0000
0000
,
0100
0000
1000
0000
0001
0000
0010
0000
0001
0000
0010
0000
0100
0010
0000
0000
,
0001
1000
0001
1000
0001
0100
0010
0000
,
0010
0100
0001
0000
0001
1000
0001
0100
,
0010
0100
0010
0000
0001
1000
0100
1000
,
0001
1000
0010
0000
0010
0100
0010
1000
,
0100
0010
0100
0000
0100
0000
0001
1000
,
0001
0000
0100
0000
0100
0010
0001
0010
,
0001
0100
0001
0000
0010
0000
0010
1000
,
0010
0000
0100
0000
0100
0010
0001
0010
,
0001
0000
0000
0010
0000
0000
1000
0000
0100
0000
1000
0000
0100
0000
0000
0000
,
0001
1000
0001
0000
0001
0100
0010
1000
,
0010
0000
1000
0000
0001
0100
0010
0100
,
0001
0000
0100
0000
0100
0010
0001
0100
,
0001
0000
0100
0000
0100
0010
0100
0010
,
0001
0000
1000
0000
0001
1000
0010
0100
,
0001
0000
0010
0000
0010
1000
0010
1000
,
0001
1000
0001
0100
0001
0100
0010
0100
,
0001
1000
0001
1000
0001
0100
0010
0100
,
0010
0000
0100
0000
0001
0000
1000
0000
0001
0000
0010
0000
0001
1000
0010
0000
,
0100
0000
0010
0000
0100
0000
1000
0000
0100
0000
1000
0000
0010
0100
1000
0000
,
0010
0000
0100
0000
0010
0000
0100
0000
0001
0000
0100
0000
0001
0010
1000
0000
,
0001
0000
1000
0000
0010
0000
1000
0000
0010
0000
0100
0000
0010
1000
0100
0000
,
0001
0000
1000
0000
0001
0000
1000
0000
0001
0000
0010
0000
0100
0001
0010
0000
,
0100
0000
0010
0000
0001
0000
1000
0000
0001
0000
1000
0000
0010
0100
1000
0000
,
0010
0000
0100
0000
0010
0000
0100
0000
0001
0000
0100
0000
0001
0010
1000
0000
,
0001
0000
1000
0000
0010
0000
1000
0000
0010
0000
0100
0000
0010
1000
0100
0000
,
0001
0000
0100
0000
0001
0000
1000
0000
0001
0000
0100
0000
0010
0001
0100
0000
,
0010
0000
0100
0000
0001
0000
1000
0000
0001
0000
0010
0000
0001
1000
0010
0000
,
0100
0000
0010
0000
0100
0000
1000
0000
0100
0000
1000
0000
0001
0010
1000
0000
,
0001
0000
0100
0000
0001
0000
0100
0000
0010
0000
0100
0000
0010
0100
1000
0000
,
0010
0000
1000
0000
0001
0000
1000
0000
0001
0000
0100
0000
0001
0010
0100
0000
,
0010
0000
0100
0000
0010
0000
1000
0000
0010
0000
1000
0000
0001
0010
0100
0000
,
0001
0100
0001
1000
0100
1000
0010
1000
,
0001
0010
0100
0010
0110
0000
1001
0000
,
2002
0000
0000
0000
,
0000
0000
0000
0000
,
3003
0000
0000
0000
;
