#VERSION:0.83;
#TITLE:KNOCK KNOCK;
#ARTIST:SMILE.dk;
#GENRE:BUBBLEGUM DANCE;
#CREDIT:B. M'Rey;
#MUSIC:Knock Knock.ogg;
#BANNER:Knock Knock-bn.png;
#BACKGROUND:Knock Knock-bg.png;
#CDTITLE:./CDTITLES/DANCEMANIA SPRINGS 2.PNG;
#SAMPLESTART:55.588;
#SAMPLELENGTH:15.080;
#OFFSET:-0.022;
#BPMS:0.000=138.000;

//--------------- dance-single - B. M'Rey ----------------
#NOTEDATA:;
#STEPSTYPE:dance-single;
#DESCRIPTION:B. M'Rey;
#DIFFICULTY:Beginner;
#METER:1;
#RADARVALUES:0.117,0.151,0.018,0,0;
#NOTES:
0000
0000
0000
0000
,
0000
0000
0000
0000
,
0000
0000
0000
0000
,
0000
0000
0000
0000
,
1000
0000
1000
0000
,
0001
0000
0000
0000
,
0100
0000
0000
0000
,
0010
0000
0000
0000
,
0001
0000
0001
0000
,
0010
0000
0000
0000
,
0100
0000
0000
0000
,
1000
0000
0000
0000
,
0001
0000
0000
0000
,
0100
0000
0000
0000
,
0010
0000
0000
0000
,
0100
0000
0000
0000
,
1001
0000
0000
0000
,
0010
0000
0000
0000
,
0001
0000
1000
0000
,
0001
0000
1000
0000
,
0001
0000
0000
0000
,
0100
0000
0000
0000
,
0010
0000
0000
0000
,
1000
0000
0000
0000
,
0100
0000
0000
0000
,
0001
0000
0000
0000
,
0010
0000
0000
0000
,
0100
0000
0000
0000
,
0010
0000
0000
0000
,
1000
0000
0000
0000
,
0001
0000
0000
0000
,
0010
0000
0000
0000
,
0100
0000
0100
0000
,
0010
0000
0000
0000
,
0001
0000
0000
0000
,
1000
0000
0000
0000
,
0010
0000
0010
0000
,
0100
0000
0000
0000
,
0001
0000
0000
0000
,
1000
0000
0000
0000
,
0100
0000
0100
0000
,
0010
0000
0000
0000
,
0001
0000
0001
0000
,
0010
0000
0000
0000
,
1000
0000
1000
0000
,
0100
0000
0000
0000
,
0001
0000
0000
0000
,
0100
0000
0000
0000
,
0010
0000
0000
0000
,
0000
0000
0000
0000
,
1000
0000
0000
0000
,
0000
0000
0000
0000
,
0001
0000
0000
0000
,
0000
0000
0000
0000
,
0100
0000
0000
0000
,
0000
0000
0000
0000
,
0010
0000
0010
0000
,
0001
0000
0000
0000
,
0100
0000
0000
0000
,
1000
0000
0000
0000
,
0010
0000
0000
0000
;

//--------------- dance-single - B. M'Rey ----------------
#NOTEDATA:;
#STEPSTYPE:dance-single;
#DESCRIPTION:B. M'Rey;
#DIFFICULTY:Easy;
#METER:3;
#RADARVALUES:0.118,0.176,0.018,0.036,0;
#NOTES:
0000
0000
0000
0000
,
0000
0000
0000
0000
,
0000
0000
0000
0000
,
0000
0000
0000
0000
,
1000
0000
1000
0000
,
0010
0000
0000
0000
,
0001
0000
0010
0000
,
0001
0000
0000
0000
,
0100
0000
0100
0000
,
0010
0000
0000
0000
,
1000
0000
0100
0000
,
1000
0000
0000
0000
,
0001
0000
0010
0000
,
0001
0000
0010
0000
,
1000
0000
0100
0000
,
1000
0000
0100
0000
,
0001
0000
0010
0000
,
0001
0000
0010
0000
,
1000
0000
0100
0000
,
1000
0000
0100
0000
,
1001
0000
0001
0000
,
0010
0000
0001
0000
,
0000
0100
0000
0000
,
0010
0000
1000
0000
,
0000
0100
0000
0000
,
0001
0000
0010
0000
,
0000
1000
0000
0000
,
0010
0000
0100
0000
,
1001
0000
0001
0000
,
0010
0001
0010
0000
,
0000
0100
0000
0000
,
1000
0000
1000
0000
,
0001
0001
0001
0000
,
0010
0000
0001
0000
,
0100
0000
0010
0000
,
1000
0000
0100
0000
,
1000
1000
1000
0000
,
0010
0000
0100
0000
,
0001
0000
0010
0000
,
0001
0000
0100
0000
,
0010
0010
0010
0000
,
0001
0000
1000
0000
,
0100
0100
0100
0000
,
0010
0000
1000
0000
,
0001
0001
0001
0000
,
0010
0000
0100
0000
,
0001
0000
1000
0000
,
0010
0000
0100
0000
,
0001
0000
0000
0000
,
0010
0000
0010
0000
,
1000
0000
0000
0000
,
0100
0000
0000
0000
,
0001
0000
0000
0000
,
0010
0000
0010
0000
,
0100
0000
0000
0000
,
0001
0000
0100
0000
,
1000
1000
1000
0000
,
0010
0000
0100
0000
,
0001
0000
0010
0000
,
0001
0000
1000
0000
,
1001
0000
0000
0000
;

//--------------- dance-single - B. M'Rey ----------------
#NOTEDATA:;
#STEPSTYPE:dance-single;
#DESCRIPTION:B. M'Rey;
#DIFFICULTY:Medium;
#METER:7;
#RADARVALUES:0.209,0.253,0.063,0.108,0;
#NOTES:
0000
0000
0000
0000
,
0000
0000
0000
0000
,
0000
0000
0000
0000
,
0000
0000
0000
0000
,
1000
0001
1000
0001
,
0100
0001
0100
0010
,
0100
0010
1000
0010
,
1000
0000
0001
0000
1000
0010
0001
0000
,
0100
0001
0100
0010
,
0100
0010
1000
0010
,
1000
0100
1000
0100
,
0010
0100
0010
0001
,
0100
0001
0100
0001
,
1000
0010
0100
0001
,
1000
0100
1000
0100
,
1000
0000
0010
0000
0100
0000
0010
0100
,
1000
0010
1000
0100
,
1000
0100
0010
0100
,
1000
0001
0010
0001
,
0010
0001
0100
0010
,
0100
1010
1010
0000
,
1000
0001
1000
0001
,
0000
0000
0001
0010
0100
0000
0000
0000
,
0100
0000
0010
0000
1000
0010
1000
0000
,
0000
1001
1001
0000
,
0100
0001
0100
0010
,
0000
0000
0010
0000
1000
0000
0001
1000
,
0000
0010
0000
1000
0000
0100
0001
0000
,
0100
0001
1000
0001
,
1000
0000
0100
1000
0100
0000
0000
0000
,
0010
0100
0010
0001
,
0011
0000
1100
0000
,
1000
0100
1000
0010
,
0100
0001
0100
0001
,
0100
0010
1000
0010
,
1000
0000
0010
0000
0100
0010
0001
0000
,
0100
0001
0100
0010
,
1000
0010
1000
0100
,
1000
0001
0010
0001
,
0010
0000
0001
0000
1000
0010
0100
0000
,
1000
0100
1000
0010
,
0100
0000
0010
0000
0100
0000
0010
0100
,
1000
0100
1000
0100
,
1000
0000
0001
0000
0010
0000
0001
0100
,
0010
0001
0100
0010
,
0100
0010
0100
0001
,
1000
0001
0010
0001
,
0010
0100
0010
0100
,
1000
0000
1000
0000
,
1000
0001
0010
0000
,
0000
0000
0010
0000
0000
0010
0000
0000
,
0000
0000
0100
0000
0000
0100
0000
0000
,
1000
0000
0010
0000
,
0010
0100
1000
0000
,
0000
0100
0010
0000
,
0011
0000
0110
0000
,
1000
0100
1000
0100
,
0010
0001
0010
0001
,
0100
0001
0100
0010
,
1000
0010
1000
0100
,
1001
0000
0000
0000
;

//--------------- dance-single - B. M'Rey ----------------
#NOTEDATA:;
#STEPSTYPE:dance-single;
#DESCRIPTION:B. M'Rey;
#DIFFICULTY:Hard;
#METER:9;
#RADARVALUES:0.334,0.354,0.305,0.207,0;
#NOTES:
0000
0000
0000
0000
,
0000
0000
0000
0000
,
0000
0000
0000
0000
,
0000
0000
0000
0000
,
1001
0000
1100
0000
1100
0000
0010
0100
,
0000
0001
0010
0001
1000
0000
1000
0010
,
1000
0010
0100
0010
0000
0001
0100
0001
,
0000
0010
0000
0100
0000
0100
1000
0100
,
1001
0000
1001
0000
0101
0000
0010
0100
,
0000
0100
1000
0100
0010
0000
0010
0001
,
1000
0001
0100
0010
0000
0010
0100
0001
,
0000
0010
0000
0001
0000
0010
1000
0010
,
1000
0000
0100
0000
0010
0001
0010
0001
,
0100
0000
0010
0000
0100
0001
1000
0010
,
1000
0000
1000
0000
0010
0100
1000
0001
,
1000
0000
0010
0000
0010
0100
0010
0100
,
1000
0000
0010
0000
1000
0001
1000
0001
,
0100
0000
1000
0000
1000
0010
0100
0001
,
0100
0000
0100
0010
1000
0000
0100
0010
,
0100
0000
1000
0100
0010
0000
0010
0100
,
1000
0000
1010
0000
1001
0000
0100
0001
,
0000
0001
1000
0010
1000
0000
1000
0000
,
0100
0000
0100
0001
0010
0000
1000
0100
,
0000
0100
0000
0001
0010
0001
1000
0000
,
1000
0000
1001
0000
0101
0000
1000
0001
,
0000
0100
1000
0100
0010
0000
0100
0000
,
0010
0000
1000
0000
0001
0000
1000
0001
,
0000
0100
0000
0100
0010
0001
1000
0000
,
1100
0000
1000
0100
0000
0100
0000
0001
,
0000
0001
0100
0001
1000
0000
0010
0000
,
0010
0000
1000
0010
0000
0010
0000
0100
,
0110
0000
1001
0000
,
0110
0000
0110
0000
0110
0000
0100
0010
,
0000
0001
0010
0001
1000
0000
1000
0001
,
1000
0100
0010
0100
0000
0100
1000
0010
,
0000
1000
0000
0001
0000
0001
0100
0001
,
1100
0000
1001
0000
1010
0000
0100
0010
,
0000
0010
1000
0100
1000
0000
1000
0001
,
0010
0001
0010
0001
0000
0100
0010
0100
,
0000
1000
0000
0001
0000
0001
0010
0001
,
0110
0000
0110
0000
0101
0000
0010
0001
,
0000
0001
1000
0100
0010
0000
1000
0000
,
1010
0000
1010
0000
0110
0000
0100
0001
,
0000
0001
1000
0001
1000
0100
1000
0000
,
0011
0000
0011
0000
0110
0000
1000
0100
,
0000
0100
0010
0001
0010
0000
1000
0001
,
0010
0100
0010
0100
0000
0100
1000
0001
,
0000
0100
0000
0010
0000
0100
1000
0001
,
1000
0000
1000
0100
0000
0001
0000
0100
,
0000
0100
1000
0001
0010
0000
0010
0000
,
1000
0000
1000
0001
0000
0001
0000
0001
,
0100
0000
0100
0010
0000
0010
0000
0100
,
1000
0000
0010
0001
0000
0100
0000
1000
,
0000
0100
0010
0001
0010
0000
0010
0000
,
1000
0000
1000
0001
0000
0100
0000
0001
,
2000
0000
0000
0000
3020
0000
0000
0030
,
1100
0000
1010
0000
0110
0000
0100
0001
,
0000
0001
0010
0001
0010
0000
0010
0100
,
1000
0100
1000
0001
0000
0001
0100
0001
,
0000
0010
0000
1000
0000
0010
1000
0100
,
1001
0000
0000
0000
;
