#TITLE:KISS ME GOODBYE!;
#ARTIST:TAEKO;
#GENRE:90's ROCK;
#CREDIT:B. M'Rey;
#MUSIC:KISS ME GOODBYE!.ogg;
#BANNER:KISS ME GOODBYE!.png;
#BACKGROUND:KISS ME GOODBYE!-bg.png;
#CDTITLE:./CDTITLES/GUITARFREAKS & drummania.png;
#SAMPLESTART:32.280;
#SAMPLELENGTH:12.000;
#OFFSET:-0.309;
#BPMS:0.000=120.000;

//--------------- dance-single - B. M'Rey ----------------
#NOTES:
     dance-single:
     B. M'Rey:
     Beginner:
     1:
     0.129,0.163,0.051,0,0.005:
0000
0000
0000
0000
,
0000
0000
0000
0000
,
0000
0000
0000
0000
,
0000
0000
0000
0000
,
1000
0000
1000
0000
,
0010
0000
0010
0000
,
0100
0000
0100
0000
,
1000
0000
1000
0000
,
0010
0000
0000
0000
,
0100
0000
0000
0000
,
0001
0000
1000
0000
,
0110
0000
0110
0000
,
1000
0000
0010
0000
,
0100
0000
0001
0000
,
1000
0000
0000
0000
,
0010
0000
0000
0000
,
0100
0100
0100
0000
,
0010
0010
0010
0000
,
1000
0000
0001
0000
,
0010
0000
0100
0000
,
1000
1000
1000
0000
,
0001
0001
0001
0000
,
0010
0000
0000
0000
,
0100
0000
0000
0000
,
1000
0010
0010
0000
,
0100
0001
0001
0000
,
1000
0000
0000
0000
,
0001
0000
0000
0000
,
0010
0000
0010
0000
,
0100
0000
0100
0000
,
1000
0000
0001
0000
,
0010
0000
0100
0000
,
1001
0000
0010
0000
,
1001
0000
0100
0000
,
0010
0000
0010
0000
,
1000
0001
0010
0010
,
1000
0000
0000
0000
,
0001
0000
0000
0000
,
0010
0000
0000
0000
,
0100
0100
0100
0100
,
0010
0000
0010
0000
,
1000
0000
1000
0000
,
0001
0000
0001
0000
,
0000
0000
0000
0000
,
0010
0000
0100
0000
,
1000
0000
0001
0000
,
1000
0000
0000
0000
0000
0000
0000
0000
1000
0000
0000
0000
0000
0000
0000
0110
;

//--------------- dance-single - B. M'Rey ----------------
#NOTES:
     dance-single:
     B. M'Rey:
     Easy:
     2:
     0.223,0.232,0.071,0,0.106:
0000
0000
0000
0000
,
0000
0000
0000
0000
,
0000
0000
0000
0000
,
0000
0000
0000
0000
,
1000
0000
0000
0000
0001
0000
0000
0000
0010
0000
0000
0010
0000
0000
0000
0000
,
0001
1000
0100
0010
,
0001
0000
0001
0000
,
1000
1000
0010
0010
,
0100
0000
0000
0000
0001
0000
0000
1000
0000
0000
0000
0000
0010
0000
0000
0000
,
1000
0000
1000
0000
,
0001
0000
0001
0000
,
0010
0000
0000
0000
0100
0000
0000
0100
0000
0000
0000
0000
1000
0000
0000
0000
,
0010
0000
0010
0000
,
0100
0000
0100
0000
,
0001
0000
1000
0001
,
1001
0000
0010
0000
,
1000
1000
0010
0100
,
0001
0000
0000
0000
0001
0000
0000
1000
0000
0000
0000
0000
0010
0000
0000
0000
,
0100
0000
0100
0010
,
1000
1000
0010
0010
,
0100
0000
0001
0000
,
1000
0000
0000
0000
0000
0000
0000
0000
0100
0000
0000
0000
0010
0000
0000
0010
,
0000
0000
0000
0000
0001
0000
0000
0001
0000
0000
0000
0000
1000
0000
0000
1000
,
0000
0000
0000
0000
0010
0000
0000
0010
0000
0000
0000
0000
0100
0000
0000
0000
,
0001
0000
0001
0000
,
0010
0000
0000
0000
0001
0000
0000
0100
0000
0000
0000
0000
1000
0000
0000
0000
,
0010
0000
0010
0100
,
0001
0000
1000
0100
,
1001
0000
0010
0100
,
0101
0000
0010
0100
,
1100
0000
1000
0001
,
0010
0010
0100
0100
,
1000
0000
1000
0000
,
0010
0000
0000
0000
0100
0000
0000
0000
0001
0000
0000
0000
1000
0000
0000
1000
,
0000
0010
0010
1000
,
0100
0100
0010
0001
,
1000
0000
0000
0000
0010
0000
0000
0000
1000
0000
0000
0100
0000
0000
0000
0000
,
0010
0000
0000
0000
0001
0000
0000
0000
1000
0000
0000
0100
0000
0000
0000
0000
,
1000
0000
0000
0000
0001
0000
0000
0000
0100
0000
0000
0010
0000
0000
0000
1000
,
0000
0001
1100
0101
,
1000
0010
0010
0100
,
0001
0010
0010
0100
,
1000
0000
0000
0000
0001
0000
0000
0000
0100
0000
0000
0000
0010
0000
0000
0100
,
0000
0000
0000
0001
0000
0000
0000
1000
0000
0000
0000
0010
0000
0000
0000
0100
,
0000
1000
0001
0010
,
0100
1000
0010
0100
,
0001
0000
0000
0000
1000
0000
0000
0000
0010
0000
0000
0100
0000
0000
0000
1001
;

//--------------- dance-single - B. M'Rey ----------------
#NOTES:
     dance-single:
     B. M'Rey:
     Medium:
     4:
     0,0,0,0,0:
0000
0000
0000
0000
,
0000
0000
0000
0000
,
0000
0000
0000
0000
,
0000
0000
0000
0000
,
0010
0000
1000
0100
,
1000
0000
0010
0100
,
0001
0000
0010
0100
,
0001
0000
0000
0000
1000
0000
0000
0000
0010
0000
0000
0000
0100
0000
0000
0001
,
0000
0000
0000
0000
0010
0000
0000
1000
0000
0000
0000
0000
0010
0000
0000
0100
,
0000
0010
0000
1000
0000
0001
0100
0000
,
0010
1000
0001
0010
,
0001
0000
0100
0000
0010
0000
1000
0000
0100
0000
0000
0000
0010
0000
0000
1000
,
0000
0000
0000
0000
0001
0000
0000
0100
0000
0000
0000
0000
0010
0000
0000
1000
,
0000
0000
0010
0000
0100
0000
0000
0001
0000
0000
0010
0000
1000
0000
0010
0000
,
0100
0000
0010
1000
0001
0000
0010
0100
,
0002
0000
0000
0003
,
1001
0000
0000
0000
0011
0000
0000
0000
0110
0000
0000
0000
0001
0000
0000
1000
,
0000
0000
0000
0000
0010
0000
0000
0100
0000
0000
0000
0000
0001
0000
1000
0000
,
0010
0000
0000
0000
0100
0000
0000
0010
0000
0000
1000
0000
0010
0000
0100
0000
,
0001
0000
0010
1000
0010
0100
0001
0000
,
1001
0000
0000
0000
0110
0000
0000
0000
0101
0000
0000
0000
1000
0000
0000
0200
,
0000
0000
0000
0000
0000
0000
0000
0000
0300
0000
0000
0000
0010
0000
0000
1000
,
0000
0000
0000
0000
0001
0000
0000
1000
0000
0000
0000
0000
0010
0000
0000
0100
,
0000
0000
0000
0000
0001
0000
0000
0010
0000
0000
0000
0000
1000
0000
0000
0020
,
0000
0000
0100
0000
0000
0130
0001
0010
,
0020
0000
0000
0000
0000
0000
0000
0000
0000
0000
1030
0000
0000
0010
0000
0000
,
0100
0000
0000
0000
0000
0000
0000
0000
0010
0000
0000
1000
0000
0000
0100
0000
,
0010
0000
0000
0001
0000
0000
0010
0000
0000
0000
0000
0000
0000
0000
0000
0000
,
1001
0000
0000
0000
0000
0000
0000
0000
0001
0000
0100
0000
1000
0000
0000
0010
,
0000
0000
0000
0000
0100
0000
0000
0000
0010
0000
1000
0000
0010
0000
0000
0100
,
0000
0000
0001
0000
0010
0100
0010
1000
,
0100
0000
0000
0000
0001
0000
0000
0000
0010
0000
0000
0000
0100
0000
0000
1000
,
0000
0000
0000
0000
,
0000
0000
0000
0000
0010
0000
0000
0000
0100
0000
0000
0000
0001
0000
0000
1000
,
0000
0000
0000
0000
0000
0010
0100
0001
,
0010
1000
0010
0100
,
1001
0000
0010
0000
0100
0001
0010
1000
,
0100
0000
0001
0000
0010
0100
0010
1000
,
0001
0000
0100
0000
0010
1000
0010
0100
,
0001
0010
1000
0001
,
2002
0000
0000
0000
,
3003
0010
0100
0010
,
0001
0000
1000
0100
1000
0010
0100
0010
,
0000
0001
0000
0001
0000
0001
0000
1000
0000
1000
0000
1000
0000
1000
0000
0000
,
0000
0010
0000
0100
0000
0000
0000
0000
0001
0000
0010
0000
1000
0000
0100
0000
,
0000
0010
0000
0000
1000
0000
0010
0000
0100
0000
0000
1000
0000
0010
0000
0100
,
0000
0001
0000
0000
0010
0000
1000
0000
0010
0000
0000
0100
0000
0001
0000
1001
;

//--------------- dance-single - B. M'Rey ----------------
#NOTES:
     dance-single:
     B. M'Rey:
     Hard:
     8:
     0.512,0.465,0.111,0.091,0.632:
0000
0000
0000
0000
,
0000
0000
0000
0000
,
0000
0000
0000
0000
,
0000
0000
0000
0000
,
1000
0000
0001
0000
0100
0000
0010
0000
0001
0010
0001
0010
0000
0100
0000
1000
,
0000
0000
0010
0000
0100
0000
0001
0000
1000
0000
0100
0010
0100
0010
0000
0001
,
0000
1000
0000
0000
0010
0000
0000
0100
0010
0100
0010
0100
0010
0100
2000
0000
,
0000
0000
0000
0000
3001
0010
0001
0020
0000
0000
0000
0000
0130
1000
0000
0010
,
0000
0000
0000
0000
0100
0001
0000
0010
0000
0000
0000
0000
1000
0100
0000
0001
,
0000
0000
0010
0000
0001
0010
0000
0100
0000
0000
1000
0000
0010
0000
0100
0000
,
0001
0010
0100
1000
0020
0000
0032
0000
,
0103
0000
1000
0000
0010
0100
0000
0100
0001
0000
0010
0000
0100
1000
0000
0001
,
0000
0000
0100
0000
0010
1000
0000
0001
0000
0000
0100
0000
0010
1000
0000
0100
,
0000
0000
0010
0000
0001
1000
0000
0100
0000
0000
0010
0000
0001
1000
0000
0010
,
0000
0100
0001
0010
0100
1000
0010
0100
,
0002
0000
0000
0000
0013
0100
0010
0100
0010
1000
0010
1000
0010
0000
0000
0000
,
1001
0000
0000
0000
0101
0000
0000
0000
0110
0000
0000
0000
1000
0000
0000
0001
,
0000
0000
0000
0000
0010
0100
0000
0001
0010
0000
0000
0000
0100
0000
0010
0000
,
0001
0000
0100
0000
0010
1000
0000
1000
0001
0000
0010
0000
0100
0000
1000
0000
,
0001
0000
0100
0000
0001
1000
0010
0100
0001
1000
0100
0010
0001
1000
0100
0000
,
1010
0000
0000
0000
0110
0000
0000
0000
1001
0000
0000
0000
0100
0000
0000
0001
,
0000
0000
1000
0000
0010
0000
0000
0000
0001
0000
0000
0000
0100
1000
0000
1000
,
0001
0000
0100
0000
0010
1000
0000
1000
0100
0000
0010
0000
0001
0100
0000
0100
,
0010
0000
1000
0000
0001
0100
0000
0100
0010
0000
1000
0000
0100
0010
0000
0010
,
0002
0000
0010
0000
0103
0010
0100
1000
,
0200
0000
0000
0000
0010
0000
0000
0301
0000
0000
0010
0001
0000
1000
0100
0000
,
0010
0000
0100
0000
0001
1000
0100
1000
,
0100
0000
0010
0000
0001
0000
1000
0000
0020
0000
0000
0000
1030
0000
0000
1000
,
0001
0000
0010
0000
0100
0000
0010
0000
0001
0010
0000
0010
0100
0000
1000
0000
,
0110
0000
0110
0000
0001
0000
0000
0000
0100
0010
0000
0010
0100
0000
1100
0000
,
1100
0000
0010
0000
0100
0000
0000
0000
0010
1000
0000
1000
0001
0000
1000
0000
,
0200
0000
0301
0100
0010
0100
0010
0100
,
0002
0010
0010
0010
,
0013
0000
0000
0000
1000
0000
0000
0001
0000
0000
0000
0000
0100
0000
0000
0001
,
0000
0000
0000
0000
1000
0000
0000
0000
0010
0000
0100
0000
1000
0000
0001
0010
,
0000
0010
0100
0000
1000
0000
0001
1000
0001
0100
1000
0100
1000
0001
0100
0001
,
0100
0000
0010
0000
1001
0000
0000
0000
0010
0100
0000
0100
1000
0000
0010
0000
,
1000
0000
0100
0000
0010
0000
0000
0000
0010
0100
0000
0100
0000
1000
0000
0100
,
0010
0000
0010
0000
1000
0000
0000
0000
0010
0001
0000
0001
0100
0000
0010
0000
,
1100
0000
0000
0000
0011
0000
0000
0000
0101
0000
0000
0000
1001
0000
0000
2000
,
0000
0000
0000
0000
0000
0000
0000
0000
3010
0100
0010
0100
0010
0100
0001
0100
,
0000
0010
0000
0100
0000
0010
0100
1000
0100
0000
0010
1000
0001
0000
0001
0100
,
0000
0001
0000
0000
0010
1000
0001
0010
0001
0000
0010
0100
0010
0000
0100
0010
,
0000
0001
0000
0100
0000
0001
0000
0100
0000
0001
0000
0010
0000
0100
0000
0010
,
0000
0001
0010
0001
0010
0000
1000
0000
1000
0100
1000
0001
0000
0010
0000
0001
,
0000
0010
0000
0010
1000
0000
0001
0000
0010
0001
0100
0010
0000
0100
0000
0001
,
0000
0020
0000
0000
1030
0000
0010
0000
0001
0000
1000
0100
0000
1000
0000
0110
;
