#VERSION:0.83;
#TITLE:KARMA CHAMELEON;
#ARTIST:CULTURE CLUB;
#GENRE:HI-NRG;
#CREDIT:B. M'Rey;
#MUSIC:KARMA CHAMELEON.ogg;
#BANNER:KARMA CHAMELEON.png;
#BACKGROUND:KARMA CHAMELEON-bg.png;
#CDTITLE:./CDTITLES/DANCEMANIA CLASSICS.PNG;
#SAMPLESTART:39.121;
#SAMPLELENGTH:15.000;
#OFFSET:-0.154;
#BPMS:0.000=92.000;

//--------------- dance-single - B. M'Rey ----------------
#NOTEDATA:;
#STEPSTYPE:dance-single;
#DESCRIPTION:B. M'Rey;
#DIFFICULTY:Beginner;
#METER:3;
#RADARVALUES:0.106843,0.143348,0.015581,0.179185,0,96,94,2,23,0,0,0.106843,0.143348,0.015581,0.179185,0,96,94,2,23,0,0;
#NOTES:
0000
0000
0000
0000
,
1000
0000
0010
0000
,
0100
0100
0100
0000
,
0001
0000
1000
0000
,
1001
0000
0000
0010
,
0100
0000
0001
0000
,
1001
0000
0000
0010
,
0200
0000
0300
0001
,
1000
0001
0000
0010
,
0200
0000
0300
0010
,
0200
0000
0300
0001
,
2000
0000
3000
0010
,
0100
0002
0003
0000
,
2000
0000
0000
0000
,
0200
0000
3300
0000
,
1000
0000
1000
0000
,
0002
0000
0003
0000
,
0100
0010
0100
0000
,
0001
0010
0001
0000
,
1000
0000
0001
0000
,
0200
0000
0300
0000
,
0001
1000
0001
0000
,
0010
0100
0010
0000
,
0001
1000
0010
0100
,
0002
0000
0003
0000
,
1000
0010
0100
0001
,
2000
0000
3200
0000
,
0310
0001
0010
0100
,
0002
0000
0003
0000
,
1000
0010
0100
0001
,
0002
0000
0023
0000
,
1030
0000
0100
0000
,
1000
0000
0010
0000
,
0100
0000
0001
0000
,
0010
0000
0001
0000
,
0200
0000
0300
0001
,
1000
0001
0000
0010
,
0200
0000
0300
0010
,
0200
0000
0300
0001
,
2000
0000
3000
0010
,
0100
0002
0003
0000
,
2000
0000
0000
0000
,
0200
0000
3300
0000
,
1000
0000
1000
0000
,
0002
0000
0000
0000
,
0000
0000
0000
0000
,
0003
0000
0000
0000
;

//--------------- dance-single - B. M'Rey ----------------
#NOTEDATA:;
#STEPSTYPE:dance-single;
#DESCRIPTION:B. M'Rey;
#DIFFICULTY:Easy;
#METER:5;
#RADARVALUES:0.183637,0.215022,0.093488,0.070116,0.035058,165,153,12,9,0,0,0.183637,0.215022,0.093488,0.070116,0.035058,165,153,12,9,0,0;
#NOTES:
0000
0000
0000
0000
,
1000
0001
0010
0100
,
0001
1000
1001
0000
,
0010
0100
0001
1000
,
0010
0000
0000
0000
0000
0000
0000
0000
0000
0000
0000
0100
0000
0000
0000
0000
,
0001
1000
0010
0100
,
0001
0000
0000
1000
,
0001
0100
0010
1000
,
0001
0000
0000
1001
0000
0000
0000
0000
0000
0000
0000
0010
0000
0000
0000
0000
,
0100
0001
1000
0010
,
0110
0000
0000
0000
0000
0000
0000
0000
0000
0000
0000
0001
0000
0000
0000
0000
,
1000
0010
0100
0001
,
0100
0000
0000
0101
0000
0000
0000
0000
0000
0000
0010
0000
0000
0000
0000
0000
,
1000
0001
0100
0010
,
2002
0000
3003
0000
,
0001
0001
0001
0000
1000
1000
1000
0000
,
0010
0000
0100
0001
,
0010
1000
0001
0100
,
0010
0001
1000
0000
,
0010
0010
0010
0000
0100
0100
0100
0000
,
1001
0010
0100
0001
,
1000
0010
0100
0001
,
0001
1000
0010
0000
,
0100
1000
0010
0100
,
0001
0000
1000
0000
,
0010
0100
0001
1000
,
2002
0000
3003
0000
,
0010
0100
0001
1000
,
0010
0100
0001
1000
,
0010
0100
0001
1000
,
2002
0000
3003
0000
,
0010
0100
0001
1000
,
0010
0100
1000
0001
,
0010
0100
0001
1000
,
0010
0000
0100
0000
0001
0000
1000
0100
,
0001
0100
0010
1000
,
0001
0000
0000
1001
0000
0000
0000
0000
0000
0000
0000
0010
0000
0000
0000
0000
,
0100
0001
1000
0010
,
0110
0000
0000
0000
0000
0000
0000
0000
0000
0000
0000
0001
0000
0000
0000
0000
,
1000
0010
0100
0001
,
0100
0000
0000
0101
0000
0000
0000
0000
0000
0000
0010
0000
0000
0000
0000
0000
,
1000
0001
0100
0010
,
2002
0000
3003
0000
,
0001
0001
0001
0000
1000
1000
1000
0000
,
0010
0000
0100
0001
,
0020
0000
0000
0000
,
0030
0000
0000
0000
;

//--------------- dance-single - B. M'Rey ----------------
#NOTEDATA:;
#STEPSTYPE:dance-single;
#DESCRIPTION:B. M'Rey;
#DIFFICULTY:Medium;
#METER:8;
#RADARVALUES:0.355031,0.304614,0,0.023372,0.105174,319,319,0,3,0,0,0.355031,0.304614,0,0.023372,0.105174,319,319,0,3,0,0;
#NOTES:
0000
0000
0000
0000
0000
0000
0000
0001
,
1000
0100
1000
0100
1000
0001
0010
0001
,
0010
0000
1000
0010
1000
0000
0100
0001
,
1000
0000
0001
0000
1000
0000
0100
0000
1000
0000
0000
0010
0000
0000
0100
0000
,
1000
0001
0010
0001
1000
0001
0100
0000
,
1000
0010
1000
0010
0100
0000
0100
0001
,
0100
0000
1000
0010
1000
0001
1000
0001
,
0010
0000
0001
0010
0000
0000
0100
0000
0010
0000
0100
0000
1000
0000
0001
0000
,
1000
0000
0001
1000
0000
0000
0010
0000
0100
0000
0000
0000
0100
0000
0010
0000
,
1000
0000
0001
1000
0000
0000
0001
0000
0100
0000
0001
0000
0100
0000
0010
0000
,
0100
0000
0010
1000
0000
0000
0010
0000
1000
0000
0001
0000
1000
0000
0001
0000
,
0100
0000
0001
0100
0000
0000
0010
0000
0100
0000
0010
0000
1000
0000
0010
0000
,
1000
0000
0001
0100
0000
0000
0010
0000
0100
0000
0010
0100
0000
0000
0001
0000
,
0010
0000
0001
0000
0010
0000
0001
0000
1000
0000
0010
1000
0000
0000
0010
0000
,
2000
0000
3100
0000
,
1000
0100
1000
0001
0100
0001
0100
0001
,
0010
0000
0010
0100
0010
0001
1000
0001
,
1000
0000
0010
0000
0100
0010
0100
0001
,
0100
0000
1000
0000
0001
0010
1000
0001
,
0010
0001
0010
0001
1000
0010
0000
0010
,
1000
0001
0100
0001
0100
0001
1000
0100
,
1000
0000
0100
0000
0001
0001
1000
0001
,
0100
0000
0010
0000
0100
0000
1000
0001
,
1000
0000
0001
0100
0000
0000
0010
0000
1000
0000
0010
0000
1000
0000
0010
0100
,
0000
0000
0001
0000
0000
0000
0001
0000
0100
0000
0000
1000
0000
0000
0100
0000
,
1000
0010
0000
1000
0000
0000
0010
0000
0100
0000
0010
0000
1000
0000
0001
0000
,
1000
0001
1000
0010
0100
0010
0100
0010
,
1000
0000
0100
1000
0000
0000
0100
0000
1000
0000
0010
0000
0100
0000
0010
0100
,
0000
0000
0010
0000
1000
0000
0100
0000
1000
0000
0000
0100
0000
0000
0001
0000
,
0010
0100
0000
0010
0000
0000
0100
0000
0010
0000
0001
0000
0100
0000
0010
0000
,
0100
0010
0100
0001
1000
0010
1000
0100
,
1000
0001
0010
0001
0010
0001
1000
0100
,
1000
0001
1000
0001
0100
0010
0100
0010
,
0100
0001
1000
0001
1000
0001
0100
0010
,
0100
0010
0100
0001
1000
0100
1000
0100
,
1000
0000
0001
0010
0000
0000
0100
0000
0010
0000
0100
0000
1000
0000
0001
0000
,
1000
0000
0001
1000
0000
0000
0010
0000
0100
0000
0000
0000
0100
0000
0010
0000
,
1000
0000
0001
1000
0000
0000
0001
0000
0100
0000
0001
0000
0100
0000
0010
0000
,
0100
0000
0010
1000
0000
0000
0010
0000
1000
0000
0001
0000
1000
0000
0001
0000
,
0100
0000
0001
0100
0000
0000
0010
0000
0100
0000
0010
0000
1000
0000
0010
0000
,
1000
0000
0001
0100
0000
0000
0010
0000
0100
0000
0010
0100
0000
0000
0001
0000
,
0010
0000
0001
0000
0010
0000
0001
0000
1000
0000
0010
1000
0000
0000
0010
0000
,
2000
0000
3100
0000
,
1000
0100
1000
0001
0100
0001
0100
0001
,
0010
0000
0010
0100
0010
0001
1000
0001
,
2000
0000
0000
0000
,
3000
0000
0000
0000
;

//--------------- dance-single - B. M'Rey ----------------
#NOTEDATA:;
#STEPSTYPE:dance-single;
#DESCRIPTION:B. M'Rey;
#DIFFICULTY:Hard;
#METER:11;
#RADARVALUES:0.339392,0.331938,0.022203,0.055508,0.385781,428,424,4,10,0,0,0.339392,0.331938,0.022203,0.055508,0.385781,428,424,4,10,0,0;
#NOTES:
0000
0000
0000
0000
0000
0000
0000
0000
0000
0000
0000
0000
0000
0000
0100
0010
,
0001
0010
0001
0100
0010
1000
0100
0010
,
0001
0010
0000
1000
0000
0000
0100
0000
1000
0000
0001
0000
0001
0000
0001
0000
,
0100
0000
0100
1000
0000
1000
0000
0200
0000
0000
0310
1000
0010
0000
0001
0010
,
0100
0000
0100
1000
0000
1000
0100
0000
0001
0000
0100
0010
0000
1000
0000
0100
,
0001
0000
0010
1000
0000
1000
0000
0020
0000
0000
0000
1030
0000
0000
0100
0000
,
0001
0000
0010
0100
0000
0100
0001
0000
0001
0000
0001
1000
0000
0010
0100
1000
,
0100
0000
0010
1000
0000
0000
0001
0000
0100
0000
0010
0100
0000
0000
0010
0000
,
0001
0100
0000
0200
0000
0000
0001
0000
0301
0000
0100
1000
0000
0001
0100
0000
,
0010
0000
0001
0010
0000
0000
0001
0000
0010
0000
0010
1000
0000
0010
0100
0000
,
0010
0000
0010
1000
0000
0100
0010
0000
0001
0000
0001
1000
0000
0000
0010
0000
,
0001
0000
0010
1000
0000
0000
0001
0000
0100
0000
0100
1000
0000
0000
0010
0000
,
0010
0000
0001
0010
0000
0000
0001
0000
0010
0000
0010
0100
0000
0100
0001
0000
,
0020
0000
0100
0000
0100
0000
0130
0000
0001
0000
0001
0010
0000
0000
0010
0000
,
0200
0000
0010
0000
0001
0000
0010
0000
0301
0000
0000
0000
0000
0000
0000
0001
,
0010
0001
0010
0001
0100
0010
0100
0010
0100
0001
1000
0001
0000
0000
0100
0000
,
0010
0000
0010
0001
0000
0001
0100
0010
0100
0000
0100
0001
0000
0001
1000
0000
,
0001
0000
0100
0000
0001
0000
0010
0000
0001
0000
1000
0010
0000
0001
1000
0000
,
0001
1000
0001
0010
0001
0100
0001
0100
,
1000
0001
1000
0100
0000
0010
0000
0100
0010
0001
0010
0001
0000
0010
0100
0000
,
0101
0000
0010
0001
0000
0001
0100
0000
0100
0000
0001
0000
1000
0000
0001
0000
,
1000
0000
0001
0100
0000
1000
0010
0000
0100
0000
0010
0000
1000
0000
0010
0000
,
1000
0000
0100
1000
0000
1000
0100
0000
0001
0000
0010
0000
0001
0000
0010
0000
,
0100
0000
0100
0010
0000
0010
0100
0000
0010
0000
0010
0001
1000
0000
1000
0100
,
0000
0010
0100
0000
0100
0001
0100
0000
1000
0000
0010
0000
0100
0000
0001
0000
,
0100
0010
0000
0010
0100
0000
0101
0000
0100
0000
0010
0100
1000
0000
0100
0000
,
1000
0010
0100
0010
1000
0000
1000
0000
1000
0001
0100
0001
0100
0000
0100
0000
,
1000
0000
1000
0001
0000
0001
0010
0000
0001
0000
0001
0010
0001
0000
0100
0010
,
0000
1000
0100
0000
0001
1000
0001
0000
0010
0000
0100
0000
0001
0000
1000
0000
,
0001
0100
0000
0100
0010
0000
0001
0000
1001
0000
0001
0100
0000
0100
0010
0000
,
0100
1000
0100
1000
0001
0000
0010
0000
0100
0010
0100
1000
0100
0000
0001
0000
,
0001
1000
0010
1000
0010
0000
0001
0000
0001
0100
0001
1000
0100
0000
0100
0000
,
0010
0100
0001
0100
0001
0000
0010
0000
0010
1000
0010
0100
0001
0000
0001
0000
,
0010
1000
0010
1000
0010
0000
0001
0000
0001
0100
0010
1000
0010
0000
0010
0000
,
0001
0100
0001
0100
0010
0000
0001
0000
0010
1000
0010
0100
1000
0000
0100
0000
,
0001
0000
0010
1000
0000
0000
0001
0000
0100
0000
0010
0100
0000
0000
0010
0000
,
0001
0100
0000
0200
0000
0000
0001
0000
0301
0000
0100
1000
0000
0001
0100
0000
,
0010
0000
0001
0010
0000
0000
0001
0000
0010
0000
0010
1000
0000
0010
0100
0000
,
0010
0000
0010
1000
0000
0100
0010
0000
0001
0000
0001
1000
0000
0000
0010
0000
,
0001
0000
0010
1000
0000
0000
0001
0000
0100
0000
0100
1000
0000
0000
0010
0000
,
0010
0000
0001
0010
0000
0000
0001
0000
0010
0000
0010
0100
0000
0100
0001
0000
,
0020
0000
0100
0000
0100
0000
0130
0000
0001
0000
0001
0010
0000
0000
0010
0000
,
0200
0010
0001
0010
0301
0000
0000
0000
,
0010
0001
0010
0001
0100
0010
0100
0010
0100
0001
1000
0001
0000
0000
0100
0000
,
0010
0000
0010
0001
0000
0001
0100
0010
0100
0000
0100
0001
0000
0001
1000
0000
,
2002
0000
0000
0000
,
3003
0000
0000
0000
;
