#TITLE:IN YOUR EYES;
#SUBTITLE:(Mr. Bishi Mix);
#ARTIST:KYLIE MINOGUE;
#GENRE:TRANCE;
#CREDIT:B. M'Rey;
#MUSIC:IN YOUR EYES (Mr. Bishi Mix)).ogg;
#BANNER:IN YOUR EYES (Mr. Bishi Mix)-bn.png;
#BACKGROUND:IN YOUR EYES (Mr. Bishi Mix)-bg.png;
#CDTITLE:./CDTITLES/DANCEMANIA 22 (Energy Overload).PNG;
#SAMPLESTART:70.726;
#SAMPLELENGTH:12.000;
#OFFSET:-0.023;
#BPMS:0.000=140.022;

//--------------- dance-single - B. M'Rey ----------------
#NOTES:
     dance-single:
     B. M'Rey:
     Beginner:
     1:
     0,0,0,0,0:
0000
0000
0000
0000
,
0000
0000
0000
0000
,
0000
1000
0000
0000
,
0000
0000
0001
0000
,
0000
0000
0000
0100
,
0000
0000
0000
0010
,
0000
0000
0000
0001
,
0000
0000
0000
1000
,
0000
0000
0000
0100
,
0000
0000
0000
0000
,
0001
0000
0001
0000
,
1000
0000
1000
0000
,
0010
0000
0010
0000
,
0100
0000
0100
0000
,
0001
0000
0001
0000
,
1000
0000
1000
0000
,
0100
0000
0100
0000
,
0010
0000
0010
0000
,
0001
0000
0000
0000
,
0000
1000
0000
0000
,
0000
0100
0000
0000
,
0000
0000
0001
0000
,
0000
0000
0000
0010
,
0000
0000
0000
0100
,
0000
0000
0000
1000
,
0000
0001
0000
1000
,
0001
0000
0000
0010
,
0000
0100
0000
0000
,
0001
0000
0001
0000
,
0010
0000
0010
0000
,
0100
0000
0100
0000
,
1000
0000
0000
0000
,
0001
0000
0001
0000
,
0010
0000
0010
0000
,
0100
0000
0000
0000
,
1000
0000
0000
0000
,
0100
0000
0100
0000
,
0010
0000
0010
0000
,
0001
0000
0000
0000
,
1000
0000
0000
0000
,
0100
0000
0100
0000
,
0110
0000
0000
0000
,
0001
0000
1000
0000
,
0001
0000
1000
0000
,
0010
0000
0100
0000
,
0001
0000
1000
0000
,
0100
0000
1000
0000
,
0010
0000
0100
0000
,
0001
0000
0010
0000
,
0001
0000
1000
0000
,
0010
0000
0100
1000
,
0100
0000
0010
0000
,
0100
0000
0001
0000
,
0010
0000
1000
0000
,
0100
0000
0001
0010
,
0001
0000
0100
0000
,
0010
0000
1000
0000
,
0100
0000
1000
0000
,
0001
0000
0100
0010
,
0100
0000
1000
0000
,
0001
0000
0010
0000
,
0100
0000
0010
0000
,
1000
0000
0001
0010
,
0001
0000
0100
0000
,
0010
0000
1000
0000
,
0100
0000
1000
0000
,
0002
0000
0003
0100
,
0000
0010
0000
1000
,
0000
0001
0000
0100
,
0000
0010
0000
1000
,
0200
0000
0300
0001
,
0000
0010
0000
0001
,
0000
0100
0000
1000
,
0000
0000
0000
0000
,
0110
0000
0000
0000
;

//--------------- dance-single - B. M'Rey ----------------
#NOTES:
     dance-single:
     B. M'Rey:
     Easy:
     3:
     0,0,0,0,0:
0000
0000
0000
0000
,
0000
0000
0000
0000
,
0000
1000
0000
0000
0001
0000
0000
0000
,
0000
0100
0000
0000
0010
0000
0000
0000
,
0000
1000
0000
0000
0001
0000
0000
0000
,
0000
0100
0000
0000
0010
0000
0000
0000
,
0000
1000
0000
0000
0001
0000
0000
0000
,
0000
0100
0000
0000
0010
0000
0000
0000
,
0000
1000
0000
0000
0001
0000
0000
0000
,
0100
0010
1000
0001
,
0001
0000
1000
0000
,
0010
0000
0100
0000
,
0001
0000
1000
0000
,
0010
0000
0100
0000
,
0010
0000
0000
1000
,
0001
0000
0000
1000
0000
0000
0000
0000
,
0010
0000
0100
0000
,
0001
0000
1000
0000
,
0000
0010
0000
0000
0001
0000
0100
0000
,
0000
0010
0000
0000
1000
0000
0001
0000
,
0000
0010
0000
0000
0100
0000
0001
0000
,
0000
1000
0000
0000
0010
0000
0000
0000
,
0000
0100
0000
0000
0001
0000
1000
0000
,
0000
0010
0000
0000
0100
0000
0001
0000
,
0000
1000
0000
0000
0010
0000
0100
0000
,
0001
1000
0010
0100
,
0001
0000
0000
1000
,
0001
0000
0000
1000
0000
0000
0000
0000
,
0010
0000
0100
0000
,
0001
0000
1000
0000
,
0010
0000
0000
0100
,
0001
1000
0000
0000
,
0010
0000
0100
0000
,
0001
0000
1000
0000
,
0010
0100
0010
0100
,
0001
0000
1000
0000
,
0010
0100
0010
0100
,
0001
0000
1000
0000
,
0010
0100
0001
0010
,
1000
0000
0100
0000
,
0001
1000
0001
1000
,
1001
0000
0000
0000
,
0001
0100
0001
0100
,
0001
1000
0010
1000
,
0010
1000
0001
0100
,
0001
0100
0001
1000
,
0100
1000
0001
0100
,
0010
0100
0001
0100
,
0010
1000
0010
1000
,
0100
1000
0100
0010
,
0100
0010
0001
0010
,
0001
1000
0001
1000
,
0100
1000
0010
0100
,
0001
0100
0010
0100
,
0010
1000
0010
1000
,
0100
1000
0100
0010
,
0001
0010
0100
0010
,
0100
1000
0100
1000
,
0001
1000
0001
0100
,
0001
0100
0010
1000
,
0001
0010
0001
0010
,
0100
0010
0001
0100
,
0010
0100
0010
1000
,
0010
1000
0001
1000
,
0001
0100
0001
0100
,
0010
0100
0010
1000
,
0010
1000
0001
1000
,
0001
0100
0001
0100
,
0010
1000
0100
1000
,
0100
1000
0001
0100
,
0001
0100
0001
0010
,
0100
0010
0100
0010
,
0001
1000
0001
1000
,
0001
0010
0100
0010
,
0200
0000
0000
0000
,
0000
0000
0000
0000
,
0000
0000
0000
0000
,
0300
0000
0000
0000
;

//--------------- dance-single - B. M'Rey ----------------
#NOTES:
     dance-single:
     B. M'Rey:
     Medium:
     5:
     0,0,0,0,0:
0000
0000
0000
0000
,
0000
0000
0000
0000
,
0000
0010
0000
0000
1000
0000
0100
1000
,
0000
0010
0000
0000
0100
0000
0010
1000
,
0000
0000
0001
0000
0000
1000
0000
0000
0001
0000
0000
0010
0000
0000
0100
0000
,
0000
0000
0010
0000
0000
1000
0000
0000
0200
0000
0000
0000
0000
0000
0000
0000
,
0300
0100
0010
0001
1000
0000
0010
1000
,
0000
0000
0001
0000
0000
0010
0000
0000
0002
0000
0000
0000
0000
0000
0000
0000
,
0003
0000
0010
0000
0000
0100
0000
0000
1000
0000
0000
0001
0000
0000
1000
0000
,
0020
0230
0302
0203
,
0301
0100
0000
0000
0010
0100
0000
0000
,
0010
0100
0000
0000
0001
0010
0000
0000
,
0001
0010
0000
0000
0100
0010
0000
0000
,
0001
1000
0000
0000
0100
1000
0000
0000
,
0001
0010
0000
0000
0001
1000
0000
0000
,
0100
0010
0000
0000
0100
1000
0000
0000
,
0001
0010
0000
0000
0100
0010
0000
0000
,
0100
0010
0000
0000
0001
1000
0000
0000
,
0010
0000
0001
0000
0000
0010
0000
0000
0001
0000
0000
0000
1000
0000
0010
0000
,
0000
0000
0100
0000
0000
1000
0000
0000
0100
0000
0000
0000
0001
0000
1000
0000
,
0000
0000
0001
0000
0000
0010
0000
0000
0100
0000
0000
0001
0000
0000
0010
0000
,
0000
0000
0100
0000
0000
1000
0000
0000
0020
0000
0000
0000
0000
0000
0000
0000
,
0030
0000
0001
0000
0000
0010
0000
0000
0001
0000
0000
0000
1000
0000
0100
0000
,
0000
0000
0010
0000
0000
0100
0000
0000
0002
0000
0000
0000
0000
0000
0000
0000
,
0000
0000
0013
0000
0000
1000
0000
0000
0010
0000
0000
0100
0000
0000
0100
0000
,
0010
0000
0000
0001
0000
0000
0100
0000
0000
0000
0010
0000
0000
0000
1000
0000
,
0010
0100
0010
0100
,
0001
0100
0001
1000
,
0001
1000
0010
1000
,
0001
0100
0001
0010
,
0100
0010
0100
0010
,
0001
0100
0001
0100
,
0010
0100
0001
0010
,
0100
1000
0100
0010
,
0100
0001
1000
0000
0010
0000
0100
0000
,
0001
0010
0100
0000
0010
0000
1000
0000
,
0100
0001
1000
0000
0100
0000
1000
0000
,
0010
1000
0100
0000
0001
0000
0100
0000
,
0001
0010
0100
0000
0010
0000
1000
0000
,
0100
0001
0010
0000
0100
0000
0010
0000
,
0001
1000
0100
0000
0010
0001
1000
0000
,
0010
1000
0010
0100
,
0001
0010
1000
0000
0001
1000
0010
0000
,
0001
0010
0100
1000
,
0001
0010
1000
0000
0100
0001
1000
0000
,
0001
1000
0100
0000
0010
0000
0100
0000
,
0001
0010
1000
0000
0100
0001
1000
0000
,
0100
0010
0100
1000
,
0010
0001
1000
0000
0100
0010
1000
0000
,
0001
1000
0010
0000
0001
1000
0010
0000
,
0100
0000
1000
0000
0001
0000
0010
0100
,
0001
0000
0010
1000
0100
0000
0010
0000
,
0100
1000
0010
0100
,
0001
1000
0010
1000
,
0001
0000
0010
0000
0001
0000
0010
0100
,
0001
0000
1000
0001
0010
0000
1000
0000
,
0001
0100
0001
0010
,
0100
0010
1000
0000
0001
1000
0010
0000
,
0100
0001
0010
0000
0100
1000
0010
0000
,
0001
0010
1000
0000
0010
0000
0100
1000
,
0001
0000
1010
0000
0001
0010
0100
1000
,
0010
0000
0100
0010
0001
0000
1000
0001
,
0100
0000
1000
0000
0001
0000
0100
0010
,
0001
0000
0010
0100
0000
0000
1000
0001
,
0010
0000
0100
0000
0001
1000
0010
0001
,
0100
1000
0100
1000
,
0010
0000
0001
0100
0001
0000
0010
1000
,
0100
0000
0000
0100
0000
0000
0010
0000
0100
0000
0000
0001
0000
0000
0010
0000
,
0100
0000
0000
0010
0000
0000
0010
0000
0001
0000
0000
0100
0000
0000
0010
0000
,
0100
0000
0001
0010
0100
1000
0010
1000
,
0100
0000
0001
0100
0001
0000
0010
1000
,
0100
0000
0000
0001
0000
0000
0100
0000
0010
0000
0000
0100
0000
0000
0000
0000
,
0100
1000
0010
0100
0001
1000
0100
0010
,
0100
0000
0100
1000
0010
0000
0100
0010
,
2002
0000
0000
0000
,
0000
0000
0000
0000
,
0000
0000
0000
0000
,
3003
0000
0000
0000
;

//--------------- dance-single - B. M'Rey ----------------
#NOTES:
     dance-single:
     B. M'Rey:
     Hard:
     9:
     0,0,0,0,0:
0000
0000
0000
0000
,
0000
0000
0000
0000
,
0000
0000
0010
0000
0000
0100
0000
0000
0001
0000
0000
0000
0100
0000
0100
0000
,
0000
0000
0001
0000
0000
0010
0000
0000
0100
0000
0000
0000
1000
0000
1000
0000
,
0000
0000
0100
0000
0000
1000
0000
0000
0100
0000
0000
0010
0000
0000
0001
0000
,
0000
0000
0001
0000
0000
0010
0000
0000
0100
0000
0000
0000
1000
0000
0000
0000
,
0000
0010
0100
1000
0001
0000
0100
1000
,
0000
0000
0100
0000
0000
0010
0000
0000
0002
0000
0000
0000
0000
0000
0000
0000
,
0000
0000
0103
0000
0000
0010
0000
0000
0100
0000
0000
1000
0000
0000
0100
0000
,
1000
1000
0001
0010
,
1001
0000
1010
0000
0000
1000
0000
0000
1010
0000
1100
0000
0000
0010
0000
0000
,
0101
0000
0101
0000
0000
0010
0000
0000
0011
0000
0110
0000
0000
0010
0000
0000
,
1100
0000
1001
0000
0000
0010
0000
0000
0110
0000
0110
0000
0000
1000
0000
0000
,
1010
0000
1001
0000
0000
1000
0000
0000
0110
0000
0101
0000
0000
0100
0000
0000
,
1001
0000
1001
0000
0000
0100
0000
0000
1010
0000
1010
0000
0000
0100
0000
0000
,
0101
0000
0110
0000
0000
1000
0000
0000
0011
0000
0110
0000
0000
0010
0000
0000
,
1100
0000
1100
0000
0000
0010
0000
0000
1001
0000
1100
0000
0000
0010
0000
0000
,
0011
0000
0110
0000
0000
1000
0000
0000
0101
0000
0101
0000
0000
0010
0000
0000
,
0001
0100
0001
0100
0001
0000
0100
1000
,
0000
0100
0001
0100
0001
0000
0010
1000
,
0000
0000
1000
0000
0000
0010
0000
0000
0100
0000
0000
0010
0000
0000
0100
0000
,
0000
0100
0010
1000
0100
0000
0001
0000
,
0001
0100
0010
1000
0100
0000
0001
0010
,
0000
1000
0010
0100
0020
0000
0100
0000
,
0130
0000
0010
0000
0000
1000
0000
0000
0010
0000
0000
0001
0000
0000
0010
0000
,
0001
0000
0000
0010
0000
0000
1000
0000
0000
0000
0100
0000
0000
0001
0000
0000
,
0010
1000
0001
1000
0000
0100
0010
0100
,
0000
1000
0001
0010
0000
1000
0010
0100
,
0000
0100
0001
1000
0000
0010
0100
1000
,
0000
1000
0010
1000
0000
0010
0001
1000
,
0000
0010
0100
0010
0000
1000
0100
0010
,
0001
0000
0001
0010
0000
2000
0000
3000
,
0001
0100
0001
0000
0001
1000
0010
0000
,
0001
0010
0001
0000
0001
1000
0100
0000
,
0010
0100
0010
0100
0010
1000
0001
0010
,
0001
0000
0010
1000
0000
0100
0001
0010
,
0000
1000
0010
1000
0000
1000
0001
0010
,
0000
1000
0100
0010
0000
1000
0100
1000
,
0001
0100
0001
0100
0010
0100
0001
1000
,
0001
0000
0010
1000
0000
0010
0100
1000
,
0000
0010
0001
1000
0000
0100
0001
0010
,
0100
0001
0100
0001
,
0001
0000
0100
0000
0010
1000
0000
0001
0010
0000
0100
0000
0001
0010
0000
1000
,
0100
0000
0010
0000
0001
0100
0000
1000
0001
0000
1000
0000
0010
0100
0000
0010
,
0001
0000
0010
0000
0100
0010
0000
1000
0100
0000
1000
0000
0001
0010
0000
0010
,
0100
0010
0100
1000
0001
0010
0001
1000
,
0100
0000
0010
0000
0100
0010
0000
1000
0100
0000
1000
0000
0001
0010
0000
0010
,
0100
0000
0010
0000
0001
0100
0000
0100
0001
0000
0100
0000
0001
0010
0000
0010
,
0100
0000
0010
0000
0001
0100
0000
1000
0001
0000
1000
0000
0010
0100
0000
0010
,
0001
0000
0010
0000
0100
1000
0000
0001
0010
0000
1000
0000
0010
1000
0000
0001
,
0100
0010
0100
0010
0100
1000
0010
0100
,
0010
0100
0001
0100
0010
1000
0010
1000
,
0010
0000
0100
0000
0001
0100
0000
0100
0001
0000
0010
0000
0100
0010
0000
0010
,
0100
0000
1000
0000
0100
0010
0000
0010
0001
0000
0010
0000
0100
0010
0000
0010
,
0001
1000
0010
0100
0010
1000
0100
0010
,
0100
0010
0100
1000
0001
1000
0001
0010
,
0001
0000
0100
0000
0010
0100
0000
0100
0001
0000
0100
0000
0001
1000
0000
1000
,
0100
0000
0010
0000
0001
1000
0000
1000
0001
0000
0100
0000
0010
1000
0000
0001
,
0010
1000
0010
0100
0001
1000
0010
0100
,
0001
0010
0001
1000
0010
0100
0010
0100
,
0001
1000
0100
1000
0100
1000
0001
0100
,
0010
1000
0001
1000
0100
0010
0001
0010
,
0001
0100
0001
0100
0010
1000
0010
0100
,
0010
0100
0001
0100
0010
1000
0100
1000
,
0010
1000
0100
0010
0001
0010
0001
1000
,
0010
1000
0100
0000
0010
0000
0001
0000
,
0001
0010
0001
0100
0010
1000
0010
1000
,
0001
0010
0001
1000
0100
1000
0010
0100
,
0001
0010
0001
0100
0010
1000
0010
1000
,
0010
0100
0001
0100
0010
0100
0001
0010
,
0100
1000
0010
0100
0010
0100
0001
0100
,
0001
0010
0100
1000
0001
1000
0100
1000
,
0010
0100
0001
0010
0100
1000
0010
1000
,
0001
0100
0010
1000
0001
0010
0100
0010
,
0200
0000
0000
0000
,
0000
0000
0000
0000
,
0000
0000
0000
0000
,
0300
0000
0000
0000
;
