#VERSION:0.83;
#TITLE:IGUANA 2004 (Yojl Blomehanika's Hellhouse Remix);
#ARTIST:MAURO PICOTTO;
#GENRE:TECHNO TRANCE;
#CREDIT:B. M'Rey;
#MUSIC:IGUANA 2004 (Yojl Blomehanika's Hellhouse Remix).ogg;
#BANNER:IGUANA 2004 (Yojl Blomehanika's Hellhouse Remix)-bn.png;
#BACKGROUND:IGUANA 2004 (Yojl Blomehanika's Hellhouse Remix)-bg.png;
#CDTITLE:./CDTITLES/DANCE MAX 2004.png;
#SAMPLESTART:39.911;
#SAMPLELENGTH:15.000;
#OFFSET:-0.187;
#BPMS:0.000=145.000;

//--------------- dance-single - B. M'Rey ----------------
#NOTEDATA:;
#STEPSTYPE:dance-single;
#DESCRIPTION:B. M'Rey;
#DIFFICULTY:Beginner;
#METER:5;
#RADARVALUES:0,0,0,0,0;
#NOTES:
0000
0000
0000
0000
,
0000
0000
0000
0000
,
0000
0000
0000
0000
,
0000
0000
0000
0000
,
0100
0000
0000
0000
,
0001
0000
0000
0000
,
1000
0000
0000
0000
,
0100
0000
0000
0000
,
1000
0000
1000
0000
,
0001
0000
0001
0000
,
0100
0000
0100
0000
,
0010
0000
0010
0000
,
0001
0000
1000
0000
,
0001
0000
1000
0000
,
0010
0000
0100
0000
,
0001
0000
0010
0000
,
2002
0000
0000
0000
,
0000
0000
0000
0000
,
0000
0000
0000
0000
,
0000
0000
0000
0000
,
0000
0000
0000
0000
,
0000
0000
0000
0000
,
0000
0000
0000
0000
0000
0000
0000
3003
,
0010
0000
0000
0000
,
0001
1000
0010
0000
,
0100
1000
0010
0000
,
0100
1000
0010
0000
,
0001
0010
0001
1000
,
0010
0100
0001
0000
,
0100
1000
0100
0000
,
0001
0010
1000
0000
,
0100
0100
1000
0100
,
1000
0001
0010
0001
,
0010
0001
1000
0010
,
1000
0010
1000
0100
,
0010
0100
0010
0100
,
1000
0010
1000
0010
,
0100
0010
1000
0001
,
0010
0001
0010
0001
,
1000
0100
0110
0000
,
0001
1000
0001
0000
,
0100
0001
1000
0000
,
0010
0001
1000
0000
,
0010
0100
1000
0100
,
0010
0001
1000
0000
,
0001
1000
0001
0000
,
0100
0010
1000
0000
,
0001
0010
0100
1000
,
0100
0001
0010
0000
,
1000
0100
1000
0000
,
0010
0100
0010
0000
,
0001
0010
0100
1000
,
0100
0010
0001
0000
,
1000
0100
1000
0000
,
0010
0100
0001
1000
,
0020
0000
0000
0000
,
0200
0000
0000
0000
,
0000
0000
0000
0000
,
0000
0000
0000
0000
,
0000
0000
0000
0000
,
0000
0000
0000
0000
,
0000
0000
0000
0000
,
0000
0000
0000
0000
,
0330
0000
0000
0000
;

//--------------- dance-single - B. M'Rey ----------------
#NOTEDATA:;
#STEPSTYPE:dance-single;
#DESCRIPTION:B. M'Rey;
#DIFFICULTY:Easy;
#METER:7;
#RADARVALUES:0,0,0,0,0;
#NOTES:
0000
0000
0000
0000
,
0000
0000
0000
0000
,
0000
0000
0000
0000
,
0000
0000
0000
0000
,
0100
1000
0100
0000
,
0100
0010
0001
0000
,
0001
0010
0100
0000
,
0100
1000
0100
0000
,
0001
0010
0001
0010
,
0100
1000
0010
0000
,
0010
1000
0100
0010
,
0100
0010
0100
0000
,
0010
1000
0010
1000
,
0100
0010
0100
0010
,
0100
1000
0010
1000
,
0010
1000
0001
0100
,
2002
0000
0000
0000
,
0000
0000
0000
0000
,
0000
0000
0000
0000
,
0000
0000
0000
0000
,
0000
0000
0000
0000
,
0000
0000
0000
0000
,
0000
0000
0000
0000
0000
0000
0000
3003
,
0100
0000
0010
0100
,
0010
1000
0010
1000
,
0001
1000
0001
0100
,
0001
0100
0010
0100
,
0010
0000
1000
0000
0010
0100
1000
0010
,
0001
1000
0001
0100
,
0010
0100
0010
0100
,
0001
0010
0001
0010
,
0001
0000
0100
0000
0010
0000
0100
0001
,
0110
0100
0001
1000
,
0001
1000
0001
0100
,
0010
0100
0010
0100
,
0001
0000
0010
0000
0100
0001
0010
1000
,
0100
0010
0001
1000
,
0001
0010
0001
0010
,
0100
0010
0100
1000
,
0100
0000
1000
0000
2002
0000
0000
3003
,
0001
0000
0010
0000
0001
0010
1000
0000
,
0100
0000
1000
0000
0100
0001
1000
0000
,
0001
0000
0100
0000
0010
1000
0100
0000
,
0010
0100
0001
1000
,
0001
0000
1000
0000
0001
1000
0010
0000
,
0100
0000
0010
0000
0100
0001
1000
0000
,
0100
0000
1000
0000
0001
0010
1000
0000
,
0001
0010
0100
0010
,
0100
0000
0010
0000
0001
0010
1000
0000
,
0001
0000
1000
0000
0001
1000
0100
0000
,
0010
0000
1000
0000
0010
0001
1000
0000
,
0010
0100
0001
0100
,
0001
0000
0100
0000
0010
0100
1000
0000
,
0010
0000
0100
0000
0010
0001
0100
0000
,
0001
0100
0001
0010
,
0001
0010
0100
0010
,
0200
0000
0000
0000
,
0000
0000
0000
0000
,
0000
0000
0000
0000
,
0000
0000
0000
0000
,
0000
0000
0000
0000
,
0000
0000
0000
0000
,
0000
0000
0000
0000
,
0300
0000
0000
0000
;

//--------------- dance-single - B. M'Rey ----------------
#NOTEDATA:;
#STEPSTYPE:dance-single;
#DESCRIPTION:B. M'Rey;
#DIFFICULTY:Medium;
#METER:10;
#RADARVALUES:0,0,0,0,0;
#NOTES:
0000
0000
0000
0000
,
0000
0000
0000
0000
,
0000
0000
0000
0000
,
0000
0000
0000
0000
,
0001
0000
0010
0000
0000
0001
0000
0000
0100
0000
0010
0000
0000
0100
0000
0000
,
1000
0000
0010
0000
0000
0001
0000
0000
0010
0000
0100
0000
0000
1000
0000
0000
,
0100
0000
1000
0000
0000
0001
0000
0000
0010
0000
0001
0000
0000
0010
0000
0000
,
0100
0000
0010
0000
0000
0100
0000
0000
1000
0000
0001
0000
1000
0000
0001
0000
,
0010
0000
1000
0000
0000
1000
0000
0000
0001
0000
1000
0000
0000
0010
0000
0000
,
0010
0000
1000
0000
0000
0100
0000
0000
0100
0000
0010
0000
0000
0001
0000
0000
,
0001
0000
0100
0000
0000
0001
0000
0000
0100
0000
1000
0000
0000
0100
0000
0000
,
0100
0000
1000
0000
0000
0001
0000
0000
0001
0000
0010
0000
0001
0000
0000
0000
,
0001
0010
0001
0000
0001
1000
0100
0000
,
0100
1000
0100
0000
0001
0010
0001
0000
,
0100
1000
0100
0000
0100
0010
0001
0000
,
0001
0010
0100
0000
0100
1000
0100
0000
,
0020
0000
0000
0000
,
0000
0000
0000
0000
,
0000
0000
0000
0000
,
0000
0000
0000
0000
,
0000
0000
0000
0000
,
0000
0000
0000
0000
,
0000
0000
0000
0000
,
0130
0010
0100
0010
0100
1000
0001
0000
0000
1100
0000
0000
,
0010
1000
0001
0000
0100
0010
0001
0000
,
0001
1000
0001
0000
0100
1000
0100
0000
,
0100
1000
0001
0000
0001
1000
0010
0000
,
0010
0100
0010
0000
0001
0100
0001
0100
,
0010
0100
0010
0000
0010
1000
0001
0000
,
0001
0010
0001
0000
0010
1000
0010
0000
,
0100
0010
0100
0000
0100
1000
0010
0000
,
0010
0000
1000
0000
0001
0000
0000
0000
0001
0000
0100
0000
0000
0010
0000
0000
,
0010
1000
0100
0000
0100
1000
0001
0000
,
0001
0100
0001
0000
0100
0010
0100
0000
,
0001
0100
0001
0000
0001
0010
0100
0000
,
0100
1000
0100
0000
0001
0010
0001
1000
,
0001
0010
0100
0000
0100
1000
0100
0000
,
0010
1000
0001
0000
0010
0100
0010
0000
,
0001
1000
0001
0000
0001
0100
0010
0000
,
0010
0100
0001
0000
0002
0000
0023
0000
,
0130
1000
0001
0000
0001
0100
0001
0000
,
0010
0100
0010
0000
0010
1000
0001
0000
,
0100
0010
0100
0000
0001
1000
0001
0000
,
0100
0010
0100
0010
0100
1000
0001
1000
,
0001
0010
0001
0000
0100
0010
0100
0000
,
0100
1000
0001
0000
0001
0100
0001
0000
,
0010
0100
0010
0000
0010
1000
0100
0000
,
0001
0100
0001
1000
0001
0010
0100
0010
,
0100
0010
0001
0000
0001
0100
0001
0000
,
0010
0100
0010
0000
0010
1000
0100
0000
,
0010
0100
0010
0000
0001
0100
0001
0000
,
0001
1000
0100
1000
0100
0010
0100
0010
,
0001
0010
0001
0000
0001
0100
0010
0000
,
0010
0100
0001
0000
0001
0010
0001
0000
,
0010
0100
0001
0100
0001
1000
0001
1000
,
0010
1000
0020
0000
0100
0000
0100
0000
,
0002
0000
0000
0000
,
0000
0000
0000
0000
,
0000
0000
0000
0000
,
0000
0000
0000
0000
,
0000
0000
0000
0000
,
0000
0000
0000
0000
,
0000
0000
0000
0000
,
0033
0000
0000
0000
;

//--------------- dance-single - B. M'Rey ----------------
#NOTEDATA:;
#STEPSTYPE:dance-single;
#DESCRIPTION:B. M'Rey;
#DIFFICULTY:Hard;
#METER:15;
#RADARVALUES:0,0,0,0,0;
#NOTES:
0000
0000
0000
0000
,
0000
0000
0000
0000
,
0000
0000
0000
0000
,
0000
0000
0000
0000
,
0010
0000
1000
0000
0000
1000
0000
0000
0001
0000
1000
0000
0000
0010
0000
0000
,
0010
0000
1000
0000
0000
0100
0000
0000
0100
0000
0010
0000
0000
0001
0000
0000
,
0001
0000
0100
0000
0000
0001
0000
0000
0100
0000
1000
0000
0000
0100
0000
0000
,
0100
0000
1000
0000
0000
0001
0000
0000
0001
0000
0010
0000
0001
0000
1000
0000
,
0110
0000
0110
0000
0000
1001
0000
0000
1001
0000
1010
0000
0000
1010
0000
0000
,
1001
0000
1100
0000
0000
0110
0000
0000
0100
0000
0010
0000
0100
0000
0000
0000
,
0110
0000
0110
0000
0000
1001
0000
0000
1100
0000
1100
0000
0000
0101
0000
0000
,
0011
0000
0011
0000
0000
0110
0000
0000
0001
0000
0010
0000
0100
0000
0000
0000
,
0001
0100
0010
1000
0100
0010
0100
1000
,
0001
0010
0001
1000
0001
1000
0010
0100
,
0001
1000
0100
0010
0001
1000
0001
0100
,
0001
1000
0010
1000
0100
0010
0001
0100
,
0001
0010
0001
0010
0100
0010
0001
0100
,
0001
1000
0001
0100
,
0001
0100
0010
0100
,
0010
1000
0010
1000
,
0001
1000
0100
0010
,
0100
0010
0100
1000
,
0001
1000
0001
1000
,
0001
1000
0001
1000
0001
0100
0010
0000
0010
0100
0000
0000
,
0001
1000
0001
1000
0001
0010
0100
0010
,
0100
0010
0001
1000
0001
1000
0001
0100
,
0010
0100
0010
0100
0001
0010
0001
0100
,
0001
0000
0100
0000
0010
0000
1000
0000
0010
0000
1000
0000
0010
1000
0001
1000
,
0001
0010
0001
0010
0001
1000
0100
1000
,
0100
1000
0001
0100
0001
0100
0001
1000
,
0100
1000
0100
1000
0001
0010
0001
0010
,
0100
0000
1000
0000
0100
0000
1000
0000
0101
0000
1001
0000
0000
0011
0000
0000
,
0001
1000
0010
1000
0010
1000
0001
0100
,
0001
1000
0001
1000
0100
1000
0100
0010
,
0100
0010
0001
0010
0001
1000
0001
1000
,
0100
0000
1000
0000
0100
0000
0010
0000
0100
0000
0010
0000
0001
1000
0100
1000
,
0001
0100
0001
1000
0001
1000
0010
1000
,
0010
0100
0001
0100
0001
0010
0001
0010
,
0100
0010
0100
1000
0100
1000
0010
1000
,
0100
0000
0010
0000
0100
0000
0010
0000
0001
1000
0100
1000
0010
0100
0001
0100
,
0001
1000
0001
0010
0100
0010
0100
0010
,
0001
1000
0001
1000
0001
0010
0100
0010
,
0100
0010
0001
1000
0001
1000
0001
0010
,
0100
1000
0001
0000
0001
0010
0001
0000
0100
1000
0100
0000
0001
0100
0010
0000
,
0001
0100
0001
0100
0001
1000
0100
1000
,
0100
1000
0010
0100
0010
0100
0010
1000
,
0100
0010
0100
0010
0100
1000
0001
1000
,
0010
1000
0001
0000
0001
1000
0010
0000
0010
0100
0010
0000
0001
0100
0001
0000
,
0001
1000
0010
1000
0010
1000
0001
0100
,
0001
0100
0001
1000
0010
1000
0010
1000
,
0001
0100
0001
1000
0100
1000
0100
1000
,
0100
0010
0001
0000
0001
1000
0001
0000
0010
1000
0100
0000
0001
1000
0001
0000
,
0100
1000
0001
0000
0100
1000
0000
0010
0100
0010
0001
0000
0100
1000
0000
1000
,
0100
0010
0001
0000
0001
0010
0000
1000
0100
1000
0100
0000
0001
0010
0000
0010
,
0100
1000
0001
0000
0100
0010
0000
0010
0100
1000
0001
0000
0001
1000
0000
0100
,
0010
0100
0010
0000
0001
0000
0000
0000
1000
0000
0100
0000
0001
0000
0010
0000
,
2000
0000
0000
0000
,
0000
0000
0000
0000
,
0000
0000
0000
0000
,
0000
0000
0000
0000
,
0000
0000
0000
0000
,
0000
0000
0000
0000
,
0000
0000
0000
0000
,
3000
0000
0000
0000
;
