#TITLE:IF YOU LEAVE ME NOW;
#SUBTITLE:(RAWLING MIX);
#ARTIST:MONICA NARANJO;
#GENRE:DISCO;
#CREDIT:B. M'Rey;
#MUSIC:IF YOU LEAVE ME NOW (RAWLING MIX).ogg;
#BANNER:IF YOU LEAVE ME NOW (RAWLING MIX)-bn.png;
#BACKGROUND:IF YOU LEAVE ME NOW (RAWLING MIX)-bg.png;
#CDTITLE:./CDTITLES/DANCEMANIA SUMMERS 2002.PNG;
#SAMPLESTART:45.459;
#SAMPLELENGTH:12.000;
#OFFSET:-0.040;
#BPMS:0.000=130.044;

//--------------- dance-single - B. M'Rey ----------------
#NOTES:
     dance-single:
     B. M'Rey:
     Beginner:
     1:
     0.090726,0.177001,0.023522,0.058804,0,54,52,2,5,0,0,0.090726,0.177001,0.023522,0.058804,0,54,52,2,5,0,0:
0000
0000
0000
0000
,
0000
0000
0000
0000
,
0000
0000
0000
0000
,
0000
0000
0000
0000
,
0000
0000
0000
0000
,
1000
0000
0000
0000
,
0010
0000
0000
0000
,
0001
0000
0000
0000
,
0100
0000
0000
0000
,
0010
0000
0000
0000
,
0001
0000
0000
0000
,
1000
0000
0000
0000
,
0100
0000
0000
0000
,
0001
0000
0000
0000
,
0010
0000
0000
0000
,
0001
0000
0000
0000
,
0100
0000
0000
0000
,
0020
0000
0000
0000
,
0031
0000
0000
0000
,
1000
0000
0000
0000
,
0100
0000
0000
0000
,
0002
0000
0000
0000
,
1003
0000
0000
0000
,
0100
0000
0000
0000
,
1001
0000
0000
0000
,
0100
0100
0100
0000
,
0010
0010
0010
0000
,
0001
0001
0001
0000
,
1000
1000
1000
0000
,
0100
0100
0100
0000
,
0010
0010
0010
0000
,
0001
0001
0001
0000
,
1000
0000
0001
0000
,
0200
0000
0000
0000
,
0310
0000
0000
0000
,
0001
0000
0000
0000
,
1000
0000
0000
0000
,
0100
0000
0000
0000
,
0001
0000
0000
0000
,
0010
0000
0000
0000
,
0100
0000
0000
0000
,
2002
0000
0000
0000
,
0000
0000
0000
0000
,
3003
0000
0000
0000
;

//--------------- dance-single - B. M'Rey ----------------
#NOTES:
     dance-single:
     B. M'Rey:
     Easy:
     2:
     0.162972,0.206991,0.023522,0.094087,0,97,95,2,8,0,0,0.162972,0.206991,0.023522,0.094087,0,97,95,2,8,0,0:
0000
0000
0000
0000
,
0000
0000
0000
0000
,
0000
0000
0000
0000
,
0000
0000
0000
0000
,
0000
0000
0000
0000
,
1000
0000
0001
0000
,
0100
0000
0010
0000
,
0001
0000
1000
0000
,
0010
0000
0001
0000
,
1000
0000
0010
0000
,
0001
0000
0100
0000
,
0010
0000
0001
0000
,
0100
0010
1000
0001
,
0010
0000
1000
0000
,
0001
0000
0100
0000
,
0010
0000
1000
0000
,
0001
1000
0001
1000
,
0002
0000
0000
0103
,
2000
0000
0000
3001
,
0010
0000
1000
0000
,
0001
0000
0100
0010
,
0002
0000
0000
1003
,
0200
0000
0000
0310
,
0001
0010
0100
1000
,
1001
0000
0000
0000
,
1000
0100
1000
0000
,
0001
0010
0001
0000
,
0010
0100
0010
0000
,
0001
0010
0001
0000
,
1000
0100
1000
0000
,
0010
0100
0010
0000
,
0001
0010
0001
0000
,
0010
0100
0010
0100
,
0020
0000
1000
0000
,
0130
0002
1000
0000
,
0103
0010
1000
0000
,
0001
0010
0001
0000
,
0010
0100
0010
0000
,
1000
0100
1000
0000
,
0001
0010
0100
0000
,
1000
0001
0010
0000
,
2002
0000
0000
0000
,
0000
0000
0000
0000
,
0000
0000
0000
0000
,
3003
0000
0000
0000
;

//--------------- dance-single - B. M'Rey ----------------
#NOTES:
     dance-single:
     B. M'Rey:
     Medium:
     3:
     0.223456,0.284612,0.023522,0.105847,0,133,131,2,9,0,0,0.223456,0.284612,0.023522,0.105847,0,133,131,2,9,0,0:
0000
0000
0000
0000
,
0000
0000
0000
0000
,
0000
0000
0000
0000
,
0000
0000
0000
0000
,
0000
0000
0000
0000
,
1000
0001
1000
0000
,
0010
0100
0010
0000
,
0001
0010
0001
0000
,
1000
0001
0010
0100
,
1000
0000
0001
0010
,
0100
1000
0000
0100
,
0010
0100
0010
0100
,
0010
0000
0001
0000
1000
0001
1000
0000
,
0100
0001
0010
1000
,
0100
0001
0000
0100
,
1000
0010
0100
0001
,
1000
0000
0010
0001
,
0020
0000
0000
0000
0000
0030
1000
0000
,
0200
0000
0000
0301
,
1000
0010
0100
0001
,
0010
0000
0100
1000
,
0200
0000
0301
0010
,
0200
0000
0301
1000
,
0010
0100
0001
1000
,
2002
0000
0000
0000
0000
3003
0100
0000
,
0010
0000
1000
0000
0001
1000
0001
0000
,
0010
0000
0100
0000
0001
0010
0001
0000
,
0100
0000
1000
0000
0010
0100
0010
0000
,
0001
0000
0010
0000
1000
0100
1000
0000
,
0010
0000
0100
0000
0001
0010
0001
0000
,
0010
0000
0100
0000
0001
0010
0001
0000
,
1000
0000
0100
0000
0001
0010
0001
0000
,
1000
0001
0010
0100
,
0002
0000
1000
0000
,
0100
0000
1000
0000
,
0103
1000
0001
0000
,
1000
0001
0010
0000
,
1000
0100
0001
0010
,
0100
1000
0001
0010
,
0100
1000
0010
0100
,
0001
1000
0100
0001
,
2002
0000
0000
0000
,
0000
0000
0000
0000
,
0000
0000
0000
0000
,
3003
0000
0000
0000
;

//--------------- dance-single - B. M'Rey ----------------
#NOTES:
     dance-single:
     B. M'Rey:
     Hard:
     6:
     0.341064,0.439855,0.070565,0.152891,0.00588,203,197,6,13,0,0,0.341064,0.439855,0.070565,0.152891,0.00588,203,197,6,13,0,0:
0000
0000
0000
0000
,
0000
0000
0000
0000
,
0000
0000
0000
0000
,
0000
0000
0000
0000
,
0000
0000
0000
0000
,
1000
0001
0010
0001
,
0100
0010
1000
0001
,
0010
0001
0100
0010
,
1000
0100
0001
0010
,
1000
0000
0100
0000
0001
0010
0001
0100
,
0010
1000
0100
0000
0010
0000
0001
0000
,
1000
0100
0010
0001
0010
0100
1000
0100
,
0001
0000
0010
0000
1000
0100
1000
0000
,
0100
0000
0010
0000
0001
0010
1000
0100
,
0001
0010
0100
0000
1000
0000
0100
0000
,
0001
0000
1000
0000
0001
0000
1000
0000
0001
0000
0000
0010
0000
0000
0200
0000
,
0000
0000
0000
0000
0000
0301
0010
0001
,
0020
0000
0000
0000
0000
1030
0100
1000
,
0100
0001
0010
0100
,
1000
0100
1000
0000
0001
0010
0001
0000
,
0010
0100
0010
0000
1000
0100
0001
0010
,
0200
0000
0000
0000
0000
0310
0001
1000
,
0001
0000
0010
0000
0100
1000
0100
0000
,
0001
0010
0100
0010
0001
0010
0100
1000
,
2002
0000
0000
3003
0000
0100
0010
0100
,
0020
0000
1000
0000
0100
0000
1030
0100
,
0002
0010
0100
1003
,
0100
0010
1000
0100
0001
0010
0100
0010
,
1000
0100
0001
0010
0100
0010
1000
0001
,
0020
0100
1000
0031
,
2000
0001
0100
3010
,
0001
0010
0001
0010
0100
0010
1000
0100
,
1001
1001
0110
0110
,
0020
1000
0100
1000
,
0130
2000
0001
0010
,
3001
0010
0001
0010
0001
0000
0000
0100
,
1000
0100
1000
0100
1000
0000
0100
0001
,
0010
0000
1000
0100
1000
0000
0001
0010
,
0001
0000
0010
0100
0010
0000
1000
0100
,
1000
0000
0001
0010
0100
1000
0100
0001
,
0010
0100
0001
0010
1000
0100
0010
0001
,
2002
0000
0000
0000
,
0000
0000
0000
0000
,
0000
0000
0000
0000
,
3003
0000
0000
0000
;
