#TITLE:I WILL FOLLOW HIM;
#ARTIST:TAEKO + THE V.O.W;
#GENRE:DANCE\/POP;
#CREDIT:B. M'Rey;
#MUSIC:I WILL FOLLOW HIM.ogg;
#BANNER:I WILL FOLLOW HIM-BN.png;
#BACKGROUND:I WILL FOLLOW HIM-bg.png;
#CDTITLE:./CDTITLES/DANCE MANIAX.png;
#SAMPLESTART:4.364;
#SAMPLELENGTH:12.000;
#OFFSET:-1.116;
#BPMS:0.000=147.805,176.250=146.805,196.000=73.903,209.500=147.805;

//--------------- dance-single - B. M'Rey ----------------
#NOTES:
     dance-single:
     B. M'Rey:
     Beginner:
     1:
     0,0,0,0,0:
0000
0000
0000
0000
,
0000
0000
0000
0000
,
1000
0000
0000
0000
,
0010
0000
0000
0000
,
0100
0000
0000
0000
,
0001
0000
0000
0000
,
1000
0000
0000
0000
,
0010
0000
0000
0000
,
0100
0000
0000
0000
,
0001
0000
0000
0000
,
0010
0000
0000
0000
,
0001
0000
0000
0000
,
0100
0000
0000
0000
,
1000
0000
0000
0000
,
0010
0000
0000
0000
,
0100
0000
1000
0000
,
0010
0000
0000
0000
,
0001
0000
0100
0000
,
0010
0000
1000
0000
,
0000
0000
0000
0000
,
0100
0000
1000
0000
,
0010
0000
0000
0000
,
0100
0000
0001
0000
,
0010
0000
0001
0000
,
1000
0000
0000
0000
,
0000
0000
0010
0000
,
0100
0000
0000
0000
,
0000
0000
0000
0000
,
0001
0000
0000
0000
,
1000
0000
0010
0000
,
0100
0000
0000
0000
,
0001
0000
1000
0000
,
0010
0000
0000
0000
,
0100
0000
0001
0000
,
1000
0000
0000
0000
,
0010
0000
0100
0000
,
0010
0000
0000
0000
,
0001
0000
0000
0000
,
1000
0000
0000
0000
,
0010
0000
0000
0000
,
0100
0000
0000
0000
,
0001
0000
0000
0000
,
1000
0000
0000
0000
,
0010
0000
0000
0000
,
0100
0000
0000
0000
,
0001
0000
0000
0000
,
1000
0000
0000
0000
,
0010
0000
0000
0000
,
0200
0000
0000
0000
,
0300
0000
0000
0021
,
0000
0000
0000
0000
,
0000
0000
0000
0000
,
0000
0000
0000
0000
0000
0030
0000
0000
0000
0000
0000
0000
0000
0000
0000
0000
;

//--------------- dance-single - B. M'Rey ----------------
#NOTES:
     dance-single:
     B. M'Rey:
     Easy:
     3:
     0,0,0,0,0:
0000
0000
0000
0000
,
0000
0000
0000
0000
,
1100
0000
0101
0000
,
1001
0000
0001
0010
,
0110
0000
0110
0000
,
1001
1010
0000
0000
,
0001
0100
0010
1000
,
0100
0010
0100
0010
,
0001
1000
0100
0010
,
0001
1000
0010
1000
,
0001
0010
0100
0010
,
0100
1000
0100
0010
,
0001
0100
0010
1000
,
0100
1000
0001
0010
,
0100
1000
1000
0000
,
0001
0000
0010
0100
,
0001
0010
0001
0100
,
0001
0100
0010
1000
,
0010
0100
0010
0100
,
0001
0100
0001
1000
,
0001
0100
0010
0100
,
0001
1000
0001
0100
,
0010
0100
0001
0010
,
0001
1000
0010
0100
,
0002
0000
0000
0000
,
0003
0000
0010
0100
,
0020
0000
0000
0000
,
0030
0000
0000
0000
,
0001
0000
0001
1000
,
0001
0100
0010
1000
,
1010
0000
0100
1000
,
0001
0100
0001
1000
,
1100
0000
0100
0010
,
0001
0100
0001
0100
,
1001
0000
0100
1000
,
0001
0010
0100
0010
,
0110
0000
1010
0000
,
1010
0000
0001
0010
,
0110
0000
0011
0000
,
1100
0000
0001
0100
,
0011
0000
0101
0000
,
0110
0000
0010
1000
,
1100
0000
0110
0000
,
0022
0000
0000
0000
,
0033
0000
1000
0001
,
0100
0010
0000
0000
,
1000
0100
1000
0001
,
0010
0000
0001
0100
,
0010
0000
0000
0000
,
1000
0000
0000
0002
,
0000
0000
0000
0200
,
0000
0000
0000
0000
,
0000
0000
0303
0000
;

//--------------- dance-single - B. M'Rey ----------------
#NOTES:
     dance-single:
     B. M'Rey:
     Medium:
     7:
     0,0,0,0,0:
0000
0000
0000
0000
,
0000
0000
0000
0000
,
1000
0001
0000
0000
0010
0100
0000
0000
,
0001
0010
0000
1000
0100
1000
0100
1000
,
0010
0100
0000
0001
0010
0001
0000
0010
,
1000
1001
0000
0000
,
0100
0000
0001
1000
0010
0000
0100
1000
,
0100
0000
0010
0100
0010
0100
0001
0010
,
0002
0000
0000
0013
2000
0000
0100
0000
,
3100
0000
0010
0100
0010
0000
0000
0001
,
0010
0000
0001
1000
0010
0000
0100
0010
,
1000
0010
0100
0001
,
0010
1000
0010
0000
0100
0001
0010
0000
,
0001
0000
1000
0000
0010
0000
0100
0010
,
1000
0001
0100
0010
,
0001
0000
1001
0000
0010
0100
0010
0100
,
0001
0000
0010
0000
1000
0100
1000
0000
,
0010
0000
0100
0000
0001
0010
0001
0010
,
2000
0000
0000
3010
0200
0000
0001
0000
,
0301
0000
0100
0010
1000
0000
0000
0010
,
0100
0000
0010
1000
0100
0000
0001
0010
,
0001
1000
0010
0100
,
0001
0010
1000
0000
0100
1000
0100
0000
,
0010
0000
0100
0000
0001
0010
1000
0100
,
0002
1000
0100
0013
,
1000
0000
0000
1000
0100
0000
0010
0100
,
0002
0010
0100
1003
,
0010
0100
0010
0100
0010
0100
0000
0000
,
1010
1010
0000
0000
0100
0000
0010
0001
,
0010
1000
0100
0010
,
0011
0011
0000
1000
0100
0000
0010
0000
,
0100
0001
0010
1000
,
1100
1100
0000
0010
0001
0000
0010
0000
,
0100
0001
1000
0010
,
1010
1010
0000
0100
0010
0000
0001
0000
,
0010
1000
0100
1000
,
0010
0110
0000
0001
0010
0011
0000
1000
,
0100
1100
0000
0010
0100
0010
1000
0010
,
0100
0101
0000
0001
0010
0011
0000
0010
,
1000
1100
0000
0010
0100
0010
1000
0000
,
0001
1001
0000
0000
0001
1001
0000
0000
,
0001
1001
0000
0010
0100
0010
0100
0000
,
0010
0110
0000
0000
0010
0110
0000
0000
,
0010
0000
0000
0100
0000
0000
0001
0000
0000
0010
0000
0000
1000
0000
0000
0100
,
0000
0001
0000
0000
0010
0000
0100
0010
,
1000
0100
1000
0010
,
0001
0000
0010
0100
0010
0000
0001
0010
,
1000
0000
0010
0000
0100
0000
0010
0100
,
0002
0000
0000
0000
,
1003
0000
0000
0000
0000
0010
0000
0000
0000
0100
0000
0000
0200
0000
0000
0000
,
0000
0000
0000
0020
,
0000
0000
0000
0000
,
0000
0000
0000
0330
0000
0000
0000
0000
;

//--------------- dance-single - B. M'Rey ----------------
#NOTES:
     dance-single:
     B. M'Rey:
     Hard:
     8:
     0,0,0,0,0:
0000
0000
0000
0000
,
0000
0000
0000
0000
,
0001
1010
0000
1000
0010
1001
0000
0100
,
0001
0011
0000
1000
0100
0010
0100
0010
,
0001
0101
0000
0010
0100
1010
0000
0100
,
0001
0100
0001
0000
0010
0000
0100
0000
,
0100
1000
0100
0010
0100
0010
0001
0010
,
0001
1000
0010
1000
0001
0010
0001
0010
,
0100
0010
0100
1000
0010
1000
0010
1000
,
0001
0010
0001
0010
0001
1000
0100
1000
,
0010
0000
0100
0010
0100
0000
0010
0100
,
0001
0010
0001
0100
,
0001
1000
0010
0000
0010
1000
0010
0000
,
0001
0000
0100
0000
0010
0100
1000
0010
,
0100
0000
0100
1000
0110
0000
0000
0000
,
0101
0000
0100
0010
0100
0010
0100
0010
,
0100
1000
0001
0100
0010
1000
0001
0010
,
0100
1000
0001
0010
0001
0100
0001
0100
,
0020
0000
0031
0010
0002
0000
0010
0000
,
0010
0000
0010
0103
0001
0010
0100
0010
,
0100
0000
0001
1000
0010
0000
0100
1000
,
0010
0001
0010
1000
,
0010
1000
0100
0000
0100
0010
0100
0000
,
0001
0100
0000
0100
0010
1000
0100
1000
,
0002
0010
0100
0010
,
0103
1000
0100
0000
0001
0010
0100
0000
,
2000
0001
0100
0001
,
3200
0000
0000
0000
,
0310
1001
0000
0100
0001
1000
0010
1000
,
0001
0010
0001
1000
0010
0100
0010
1000
,
0010
0101
0000
1000
0100
0010
0100
0010
,
0100
1000
0001
0010
0001
0100
0010
0100
,
0001
0110
0000
1000
0100
1000
0010
1000
,
0101
0000
1001
0000
1100
0000
0001
1000
,
0010
0101
0000
0100
0001
1000
0100
1000
,
0100
0010
0100
0010
0001
1000
0001
0010
,
0100
0110
0000
1000
0001
1001
0000
1000
,
0010
0110
0000
1000
0100
1000
0010
1000
,
0100
0110
0000
0010
0001
0011
0000
0100
,
0001
0110
0000
0100
0010
1000
0100
1000
,
0001
0101
0000
1000
0100
0011
0000
0010
,
0100
0110
0000
1000
0010
1000
0001
1000
,
0010
0110
0000
0100
0010
1100
0000
0010
,
0001
0000
0000
0010
0000
0000
0100
0000
0000
0001
0000
0000
1000
0000
0000
0010
,
0000
0100
0010
0001
0010
0001
1000
0010
,
1000
0000
0100
0010
0100
0000
1000
0001
,
0010
0100
0010
0100
0010
0001
0100
0001
,
0100
0000
0100
0010
1000
0000
0100
0001
,
0010
0001
0010
0100
0010
0100
1000
0000
,
0010
0000
0000
0000
0100
1000
0000
0010
0000
1000
0000
0000
0002
0000
0000
0000
,
0000
0000
0000
0020
,
0000
0000
0000
0000
,
0000
0000
0000
0033
0000
0000
0000
0000
;
