#TITLE:I WILL FOLLOW;
#SUBTITLE:(FULL INTENTION RADIO MIX);
#ARTIST:UNA MAS;
#GENRE:HOUSE;
#CREDIT:B. M'Rey;
#MUSIC:I WILL FOLLOW (FULL INTENTION RADIO MIX).ogg;
#BANNER:I WILL FOLLOW (FULL INTENTION RADIO MIX)-bn.png;
#BACKGROUND:I WILL FOLLOW (FULL INTENTION RADIO MIX)-bg.png;
#CDTITLE:./CDTITLES/DANCEMANIA SUMMERS 2002.PNG;
#SAMPLESTART:59.128;
#SAMPLELENGTH:12.000;
#OFFSET:-0.040;
#BPMS:0.000=127.962;

//--------------- dance-single - B. M'Rey ----------------
#NOTES:
     dance-single:
     B. M'Rey:
     Beginner:
     1:
     0.065592,0.074299,0,0.049907,0,46,46,0,5,0,0,0.065592,0.074299,0,0.049907,0,46,46,0,5,0,0:
0000
0000
0000
0000
,
0000
0000
0000
0000
,
0000
0000
0000
0000
,
0000
0000
0000
0000
,
0000
1000
0000
0000
0000
0000
0000
0000
,
0000
0001
0000
0000
0000
0000
0000
0000
,
0000
0010
0000
0000
0000
0000
0000
0000
,
0000
0200
0000
0000
0000
0000
0000
0000
,
0000
0301
0000
0000
0000
0000
0000
0000
,
0000
1000
0000
0000
0000
0000
0000
0000
,
0000
0010
0000
0000
0000
0000
0000
0000
,
0000
0100
0000
0000
0000
0000
0000
0000
,
0000
0001
0000
0000
0000
0000
0000
0000
,
0000
0010
0000
0000
0000
0000
0000
0000
,
0000
0001
0000
0000
0000
0000
0000
0000
,
0000
1000
0000
0000
0000
0000
0000
0000
,
0000
0100
0000
0000
0000
0000
0000
0000
,
0000
1000
0000
0000
0000
0000
0000
0000
,
0000
0010
0000
0000
0000
0000
0000
0000
,
0000
0100
0000
0000
0000
0000
0000
0000
,
0000
0001
0000
0000
0000
0000
0000
0000
,
0000
0010
0000
0000
0000
0000
0000
0000
,
0000
0001
0000
0000
0000
0000
0000
0000
,
0000
1000
0000
0000
0000
0000
0000
0000
,
0000
0010
0000
0000
0000
0020
0000
0000
,
0000
0000
0000
0000
0000
0030
0000
0000
,
0000
0001
0000
0000
0000
0000
0000
0000
,
0000
1000
0000
0000
0000
0000
0000
0000
,
0000
0010
0000
0000
0000
0000
0000
0000
,
0000
0100
0000
0000
0000
0000
0000
0000
,
0000
1000
0000
0000
0000
0000
0000
0000
,
0000
0001
0000
0000
0000
0000
0000
0000
,
0000
1000
0000
0000
0000
2000
0000
0000
,
0000
0000
0000
0000
0000
3000
0000
0000
,
0000
0010
0000
0000
0000
0000
0000
0000
,
0000
0100
0000
0000
0000
0000
0000
0000
,
0000
1000
0000
0000
0000
0000
0000
0000
,
0000
0001
0000
0000
0000
0000
0000
0000
,
0000
0100
0000
0000
0000
0000
0000
0000
,
0000
0010
0000
0000
0000
0000
0000
0000
,
0000
0001
0000
0000
0000
0002
0000
0000
,
0000
0000
0000
0000
0000
0003
0000
0000
,
0000
0100
0000
0000
0000
0000
0000
0000
,
0000
0010
0000
0000
0000
0000
0000
0000
,
0000
0001
0000
0000
0000
0000
0000
0000
,
0000
1000
0000
0000
0000
0000
0000
0000
,
0000
0010
0000
0000
0000
0000
0000
0000
,
0000
0100
0000
0000
0000
0000
0000
0000
,
0000
0010
0000
0000
0000
0020
0000
0000
,
0000
0000
0000
0000
0000
0030
0000
0000
;

//--------------- dance-single - B. M'Rey ----------------
#NOTES:
     dance-single:
     B. M'Rey:
     Easy:
     2:
     0.161127,0.224019,0,0.119776,0,113,113,0,12,0,0,0.161127,0.224019,0,0.119776,0,113,113,0,12,0,0:
0000
0000
0000
0000
,
0000
0000
0000
0000
,
0000
0000
0000
0000
,
0000
0000
0000
0000
,
0000
1000
0000
0000
0000
0010
0000
0000
,
0000
0001
0000
0000
0000
0100
0000
0000
,
0000
0010
0000
0000
0000
1000
0000
0000
,
0000
0002
0000
0000
0000
0000
0000
0000
,
0000
1003
0000
0001
0000
0010
0000
0000
,
0000
1000
0000
0100
0000
0000
0000
0010
,
0000
0000
0000
1000
0000
0010
0000
0000
,
0000
0001
0000
1000
0000
0000
0000
0010
,
0000
0000
0000
0001
0000
1000
0000
0000
,
0000
0010
0000
0100
0000
0000
0000
0001
,
0000
1000
0000
0020
0000
0030
0000
0001
,
0000
1000
0000
0000
0000
0010
0000
0000
,
0000
0100
0000
1000
0000
0100
0000
0000
,
0000
0001
0000
0010
0000
0000
0000
0100
,
0000
0000
0000
0001
0000
1000
0000
0010
,
0000
0200
0000
0000
0000
0300
0000
0000
,
0000
0010
0000
0010
0000
1000
0000
0000
,
0000
0010
0000
0100
0000
0000
0000
0001
,
0000
1000
0000
0100
0000
0001
0000
0000
,
0000
0100
0000
0000
0000
0010
0000
1000
,
0000
0001
0000
0000
0000
0002
0000
0000
,
0000
0000
0000
0000
0000
0003
0000
0000
,
0000
0100
0000
0001
0000
1000
0000
0010
,
0000
0000
0000
0100
0000
0010
0000
1000
,
0000
0100
0000
0000
0200
0000
0000
0000
,
0000
0300
0000
0000
0000
1000
0000
0000
,
0000
0001
0000
1000
0000
0100
0000
0001
,
0000
1000
0000
0000
0000
0100
0000
0010
,
0000
0100
0000
0000
0000
0200
0000
0000
,
0000
0000
0000
0000
0000
0300
0000
0001
,
0000
1000
0000
0010
0000
0100
0000
0001
,
0000
0020
0000
0000
0000
0130
0000
1000
,
0000
0100
0000
0000
0200
0000
0000
0000
,
0000
0300
0000
0000
0000
0001
0000
0000
,
0000
1000
0000
0001
0000
0010
0000
0001
,
0000
0100
0000
0010
0000
1000
0000
0001
,
0000
0010
0000
0000
0000
0020
0000
0000
,
0000
0000
0000
0000
0000
0030
0000
0000
,
0100
0000
0000
0001
0000
1000
0000
0000
,
0010
0000
0000
0001
0000
1000
0000
0100
,
0000
0010
0000
0000
0020
0000
0000
0000
,
0000
0130
0000
1000
0000
0001
0000
0000
,
0000
0100
0000
1000
0000
0001
0000
0100
,
0000
0020
0000
0000
0000
0130
0000
0001
,
0000
1000
0000
0000
0000
2000
0000
0000
,
0000
0000
0000
0000
0000
0000
0000
3000
;

//--------------- dance-single - B. M'Rey ----------------
#NOTES:
     dance-single:
     B. M'Rey:
     Medium:
     4:
     0.265218,0.330881,0,0.209608,0,186,186,0,21,0,0,0.265218,0.330881,0,0.209608,0,186,186,0,21,0,0:
0000
0000
0000
0000
,
0000
0000
0000
0000
,
0000
0000
0000
0000
,
0000
0000
0000
0000
,
1000
0000
0001
0000
,
0100
0000
0001
0000
,
1000
0000
0010
0000
,
0200
0000
0000
0000
,
0310
0000
0000
1000
0010
0100
0001
0000
,
0010
1000
0100
0000
0001
0001
0000
0000
,
0100
0100
0000
0001
1000
0010
0100
0000
,
0001
0010
0100
0000
1000
1000
0000
0000
,
0001
0001
0000
0010
1000
0100
0001
0000
,
0010
0100
0010
0000
1000
1000
0000
0000
,
0001
0010
0000
0100
1000
0000
0000
0001
,
1000
0010
0100
0000
0001
0001
0000
0000
,
1000
1000
0000
0100
0001
1000
0010
0000
,
0100
1000
0100
0000
0010
0010
0000
0000
,
0100
0100
0000
0001
1000
0020
0000
0130
,
1000
0100
1000
0000
0001
0000
0010
0100
,
0010
0100
0000
0001
1000
0010
0100
0000
,
0010
1000
0100
0000
0010
0010
0000
0000
,
1000
0100
0000
0001
1000
0000
0100
0010
,
0002
0000
0000
0000
0000
1000
0000
1000
,
0003
2000
0000
0000
0000
0200
0000
0000
,
0000
0000
0000
0000
0000
3300
0000
0000
,
0001
0000
1000
0010
0100
0001
0000
1000
,
0010
0010
0000
0000
0001
0001
0000
1000
,
0000
0100
0010
0000
0002
0000
0000
0000
,
0010
0013
0000
0000
1000
1000
0000
0000
,
0100
0000
0001
1000
0010
0100
0000
0001
,
1000
0000
0000
0000
0000
0100
0000
0001
,
0000
0200
0000
0000
0000
0002
0000
0000
,
0000
0000
0000
0000
0000
0303
0000
0000
,
0010
0000
0100
1000
0001
0010
0000
0100
,
1000
2000
0000
3200
0000
0320
0000
0130
,
0000
0001
1000
0000
0020
0000
0000
0000
,
1000
1030
0000
0000
0100
0100
0000
0000
,
0001
1000
0010
0100
1000
0000
0001
0010
,
0100
0000
1000
0000
0100
0001
0000
0010
,
0000
0002
0000
0000
0000
0020
0000
0000
,
0000
0000
0000
0000
0000
0033
0000
0000
,
1000
0000
0001
0100
0010
1000
0000
0000
,
0100
0000
0010
0001
1000
0010
0000
0001
,
0000
0010
0100
0000
2000
0000
0000
0000
,
3100
0000
0010
0000
0001
0001
0000
0000
,
0010
0000
1000
0001
0100
0010
0000
1000
,
0001
2000
0000
3200
0000
0320
0000
2030
,
0000
3002
0000
0000
0000
0200
0000
0000
,
0000
0000
0000
0000
,
0000
0000
0000
0000
,
0303
0000
0000
0000
;

//--------------- dance-single - B. M'Rey ----------------
#NOTES:
     dance-single:
     B. M'Rey:
     Hard:
     7:
     0.42492,0.559953,0.009981,0.199627,0.084841,298,297,1,20,0,0,0.42492,0.559953,0.009981,0.199627,0.084841,298,297,1,20,0,0:
0000
0000
0000
0000
,
0000
0000
0000
0000
,
0000
0000
0000
0000
,
0000
0000
0000
0000
,
1000
0001
0100
0000
0001
1000
0010
0000
,
0100
1000
0001
0000
0010
0100
0010
0000
,
1000
0001
0010
0000
1000
0100
1000
0000
,
0010
0001
0100
0001
0010
0001
0100
0001
,
0010
0100
0000
1000
0001
0010
0100
0000
,
1000
0001
0010
0100
0000
1000
0001
0010
,
0000
0100
1000
0001
0010
0100
1000
0001
,
0010
0100
1000
0100
0000
0001
0010
0001
,
0000
1000
0010
0100
0001
1000
0010
0100
,
0010
1000
0001
0010
0000
0001
0010
1000
,
0001
0100
0000
0010
1000
0000
0100
0001
,
0010
1000
0010
0100
0000
1000
0010
0100
,
0000
1001
0000
0100
0000
0001
1000
0010
,
0000
0100
0001
1000
0000
0001
1000
0100
,
0000
0001
1000
0010
0100
0010
0001
0010
,
1000
0100
0001
0010
0000
1000
0100
1000
,
0000
0001
1000
0010
0100
0010
1000
0000
,
0100
0010
1000
0100
0000
0010
0100
1000
,
0000
0001
0010
0001
1000
0100
0010
1000
,
0001
0020
0230
0320
0230
0320
0230
0320
,
0230
0000
0301
0000
1000
0000
0010
0000
0100
0001
0010
0000
0100
0000
1000
0000
,
0001
0010
0100
0000
1000
0000
0100
0000
0001
1000
0010
0000
0100
0000
0001
0000
,
1000
0000
0001
1000
0010
0200
0000
0301
,
0000
0010
1000
0100
0000
0001
0000
0100
,
0000
0000
1000
0000
0100
0000
0010
0000
0001
1000
0010
0000
0100
0000
0001
0000
,
0010
1000
0010
0000
0100
0000
0001
0000
0010
1000
0100
0000
0001
0000
0010
0000
,
0100
0000
1000
0001
0100
0010
0000
1000
,
0100
1000
0001
0010
0000
0100
0000
1000
,
0000
0002
0000
0000
0000
2000
0000
0000
,
0000
0000
0000
0000
0000
0000
0000
3003
,
0010
0000
1000
0001
0010
0100
0000
1000
,
0000
0000
0001
0000
0001
1000
0001
0000
0100
0010
0100
0000
0001
0010
0001
0000
,
1000
0000
0001
0000
0010
0000
0001
0000
0100
0010
0100
0000
0010
0000
1000
0000
,
0001
0010
0001
0000
0001
0000
1000
0000
0010
0100
0001
0000
0010
0000
1000
0000
,
0100
0001
0010
1000
0100
0010
1000
0001
,
0020
0000
0230
0000
2300
3010
0000
0100
,
0000
0020
0000
0000
0000
0200
0000
0000
,
0000
0000
0000
0000
0000
0000
0000
0330
,
1000
0001
0100
0010
1000
0001
0000
0100
,
1000
0000
0010
0000
0010
0100
0010
0000
0001
1000
0001
0000
0010
1000
0010
0000
,
0100
0000
0010
0000
1000
0000
0010
0000
0001
1000
0001
0000
1000
0000
0100
0000
,
0010
1000
0010
0000
0010
0000
0100
0000
1000
0000
0010
0000
1000
0000
0100
0000
,
0001
0010
1000
0100
0001
1000
0100
0010
,
1000
0020
0000
0031
0200
0010
0300
1000
,
0000
0002
0000
0000
0000
2000
0000
0000
,
0000
0000
0000
0000
,
0000
0000
0000
0000
,
3003
0000
0000
0000
;
