#TITLE:I WAS MADE FOR LOVING YOU;
#ARTIST:BUSā˜…STOP;
#GENRE:EUROHOUSE;
#CREDIT:B. M'Rey;
#MUSIC:I WAS MADE FOR LOVING YOU.ogg;
#BANNER:I WAS MADE FOR LOVING YOU.png;
#BACKGROUND:I WAS MADE FOR LOVING YOU-bg.png;
#CDTITLE:./CDTITLES/DANCEMANIA EX3.png;
#SAMPLESTART:28.664;
#SAMPLELENGTH:12.000;
#OFFSET:-0.300;
#BPMS:0.000=135.000;

//--------------- dance-single - B. M'Rey ----------------
#NOTES:
     dance-single:
     B. M'Rey:
     Beginner:
     1:
     0.120811,0.213644,0.033382,0,0,76,73,3,0,0,0,0.120811,0.213644,0.033382,0,0,76,73,3,0,0,0:
0000
0000
0000
0000
,
0000
0000
0000
0000
,
0000
0000
0000
0000
,
0000
0000
0000
0000
,
0000
0000
0000
0000
,
0000
0000
0000
0000
,
0000
0000
0000
0000
,
0000
0000
0000
0000
,
0001
0000
1000
0000
,
0100
0000
0000
0000
,
0001
0000
1000
0000
,
0100
0000
0000
0000
,
0001
0000
1000
0000
,
0010
0000
0000
0000
,
0001
0000
1000
0000
,
0100
0000
0000
0000
,
1000
0000
1000
0000
,
0001
0000
0010
0000
,
0001
0000
0100
0000
,
1001
0000
0000
0000
,
1000
0000
0010
0000
,
0100
0000
0010
0000
,
1000
0000
0001
0000
,
1001
0000
0000
0000
,
1000
0000
0100
0000
,
0001
0001
0000
0000
,
0100
0000
0001
0000
,
1000
1000
0000
0000
,
0010
0000
1000
0000
,
0100
0100
0000
0000
,
1000
0000
0001
0000
,
0010
0010
0000
0000
,
0001
0000
0100
0000
,
1000
0000
0000
0000
,
0010
0000
1000
0000
,
0100
0000
0000
0000
,
0010
0000
0001
0000
,
0100
0000
0000
0000
,
1000
0000
0010
0000
,
0001
0000
0000
0000
,
1000
0000
0100
0000
,
1000
1000
0000
0000
,
0001
0000
0100
0000
,
0001
0001
0000
0000
,
1000
0000
0100
0000
,
0001
0000
0100
0000
,
1000
1000
1000
0000
,
0001
0001
0001
0000
,
1001
0000
0000
0000
;

//--------------- dance-single - B. M'Rey ----------------
#NOTES:
     dance-single:
     B. M'Rey:
     Easy:
     3:
     0.197112,0.347172,0.133528,0.011127,0,124,112,12,1,0,0,0.197112,0.347172,0.133528,0.011127,0,124,112,12,1,0,0:
0000
0000
0000
0000
,
0000
0000
0000
0000
,
0000
0000
0000
0000
,
0000
0000
0000
0000
,
0000
0010
0000
0000
,
0001
0000
0001
0000
,
0000
1000
1000
0000
,
0010
0000
0100
0000
,
1001
0000
0010
0000
,
0100
0000
0001
0000
,
1000
0000
0010
0000
,
0100
0000
0001
0000
,
1001
0000
1001
0000
,
0001
0000
0010
0000
,
0101
0000
1010
0000
,
0101
1010
0101
1010
,
0001
0001
1000
1000
,
0010
0100
1001
1001
,
0010
0100
0001
0010
,
1000
0100
0000
0000
,
0001
0010
0001
1000
,
0010
0100
1000
0010
,
0001
0100
0010
0001
,
1000
0010
0000
0000
,
0001
0000
0010
0000
,
1000
0100
1000
0010
,
0001
0000
0100
0000
,
0001
0010
0100
1000
,
0100
0000
0010
0000
,
0100
0010
1000
0100
,
0001
0000
0010
0000
,
0100
0010
1000
0000
,
0000
0001
0010
0000
,
0100
0000
0000
1000
0000
0000
0000
0000
,
0000
0010
0010
0000
,
0100
0001
0010
0000
,
0000
0001
0001
0000
,
1000
0010
0100
0000
,
0000
1000
1000
0000
,
0010
0100
1000
0000
,
0001
0000
1000
0000
,
0010
0000
0100
0000
,
0001
1000
0001
1000
,
0000
0010
0000
0200
,
0000
0000
0000
0000
,
0000
0300
0000
0000
,
0100
1000
0001
0010
,
0100
0001
0000
0000
,
1001
0000
0000
0000
;

//--------------- dance-single - B. M'Rey ----------------
#NOTES:
     dance-single:
     B. M'Rey:
     Medium:
     5:
     0.281362,0.347172,0.222546,0.044509,0,177,157,20,4,0,0,0.281362,0.347172,0.222546,0.044509,0,177,157,20,4,0,0:
0000
0000
0000
0000
,
0000
0000
0000
0000
,
0000
0000
0000
0000
,
0000
0000
0000
0000
,
0000
0001
0010
0000
,
1000
0000
0010
0000
,
0000
1001
1001
0000
,
0010
0000
0100
0000
,
0000
0001
0010
0000
,
1000
0100
0010
1000
,
0001
0000
0010
0000
,
0001
0100
0010
1000
,
1001
0000
0110
0000
,
0011
0000
1100
0000
,
1001
0000
1001
0000
,
1001
1001
1001
1001
,
1000
0010
0100
0001
,
0010
0000
0001
0000
1000
0100
0010
0000
,
0001
0001
0010
1000
,
0100
0000
0010
0000
0001
0010
0100
0000
,
1000
0010
0100
0001
,
0010
0000
1000
0000
0001
0010
0100
0000
,
1000
0000
0100
0000
0010
0000
1000
0100
,
0000
0010
0000
0001
0000
0100
0000
0000
,
1001
0010
0100
0001
,
0010
0000
1000
0000
0001
0010
0100
0000
,
1000
0010
0100
1000
,
0100
0010
0001
0010
0001
0000
0010
0000
,
0100
0000
1000
0000
0010
0000
0001
0010
,
0000
1000
0100
0010
1000
0000
0001
0000
,
0010
0000
0100
0000
1000
0000
0010
0100
,
0000
0001
1000
0000
0010
0000
0100
0000
,
1001
0000
0010
0001
0010
0000
0000
0000
,
1000
0010
0100
0000
,
0000
0000
1001
0000
1001
0000
0000
0010
,
0000
0100
0000
0002
0000
0000
0003
0000
,
0000
0000
1000
0100
1000
0000
0000
0000
,
0001
0010
0100
0000
,
0000
0000
1001
0000
1001
0000
0000
0010
,
0000
0100
0000
2000
0000
0000
3010
0000
,
0101
1000
0010
0100
,
0001
0010
0001
0100
,
1000
1000
0100
0100
1000
1000
0100
0000
,
0010
0001
0010
1000
,
0202
0000
0000
0000
,
0000
0000
0000
0303
0000
0000
0000
0000
0000
0000
0000
0000
0000
0000
0000
0000
,
0010
1000
0100
0001
,
0010
0000
0001
0000
1000
0000
0100
0010
,
0001
0000
0000
0000
;

//--------------- dance-single - B. M'Rey ----------------
#NOTES:
     dance-single:
     B. M'Rey:
     Hard:
     6:
     0.400583,0.453994,0.378328,0.144655,0.016691,252,218,34,13,0,0,0.400583,0.453994,0.378328,0.144655,0.016691,252,218,34,13,0,0:
0000
0000
0000
0000
,
0000
0000
0000
0000
,
0000
0000
0000
0000
,
0000
0000
0000
0000
,
0000
0000
0001
0010
1000
0000
0000
0100
,
1000
0000
0010
0001
0000
0000
0000
0000
,
0000
0000
1001
0000
1001
0000
0000
0010
,
0000
0100
0000
1000
0000
0000
0010
0000
,
1001
0000
0110
0000
0001
0000
0000
0001
,
0000
0010
0000
0000
1000
0000
0100
0000
0000
0000
0010
0000
0001
0000
0000
0000
,
1000
0000
1001
0000
0110
0000
0000
0001
,
0000
0010
0000
0000
0001
0000
0100
0000
0000
0000
1000
0000
0100
0000
1000
0000
,
1001
0000
0110
0000
,
0011
0000
1001
0000
,
1001
0110
1001
0000
,
0010
0001
0010
0000
0100
1000
0100
0000
,
0011
0000
1100
0000
0010
0100
1000
0100
,
0010
0001
0010
0000
1100
0000
0011
0000
,
0001
0010
0100
1000
1000
0000
0101
0000
,
0011
0000
1000
0000
0001
0010
0100
1000
,
1010
0000
0101
0000
0010
0001
0010
1000
,
0100
1000
0010
0000
0011
0000
1100
0000
,
0010
0001
0100
1000
0010
0000
0001
0010
,
0011
0000
1100
0000
0000
0000
0000
0001
,
0010
0000
0000
0000
0000
0000
0000
0000
0000
0000
0000
0000
0000
0000
0000
0000
2000
0000
0000
0000
0000
0000
0000
0000
0000
0000
0000
0000
0000
3000
0000
0000
0200
0000
0000
0000
0000
0000
0000
0000
0000
0000
0000
0300
0000
0000
0000
0000
0001
0000
0000
0000
0000
0000
0000
0000
0010
0000
0000
0000
0000
0000
0000
0000
,
0001
0000
0000
0000
0000
0000
0000
0000
0000
0000
0000
0000
0000
0000
0000
0000
0000
0000
0000
0000
0000
0000
0000
0000
1000
0000
0000
0000
0000
0000
0000
0000
0000
0000
0000
0000
0000
0000
0000
0000
0000
0000
0000
0000
0000
0000
0000
0000
0000
0000
0000
0000
0000
0000
0000
0000
0000
0000
0000
0000
0000
0000
0000
0000
0000
0000
0000
0000
0000
0000
0000
0000
0100
0000
0000
0000
0000
0000
0000
0000
0000
0000
0000
0000
0000
0000
0000
0000
0000
0000
0000
0000
0000
0000
0000
0000
0002
0000
0000
0000
0000
0000
0000
0000
0000
0000
0000
0000
0000
0000
0000
0000
0000
0000
0000
0000
0000
0000
0000
0000
0000
0000
0000
0000
0000
0000
0000
0000
0000
0000
0000
0000
0000
0000
0000
0000
0000
0000
0000
0000
0000
0000
0000
0000
0010
0003
0000
0000
0000
0000
0000
0000
0000
0000
0000
0000
0000
0000
0000
0000
0000
0000
0000
0000
0000
0000
0000
0000
0000
0000
0000
0000
0000
0000
0000
0000
0000
0000
0000
0000
0000
0000
0000
0000
0000
0000
0000
0000
0000
0000
0000
0000
,
0200
0000
0000
0000
0000
0000
0000
0000
0000
0000
0000
0000
0000
0000
0000
0000
0000
0000
0000
0000
0000
0000
0000
0000
0000
0000
0000
0000
0000
0000
0000
0000
0000
0000
0000
0000
0000
0000
0000
0000
0000
0000
0000
0000
0300
0000
0000
0000
2000
0000
0000
0000
0000
0000
0000
0000
0000
0000
0000
0000
0000
0000
0000
0000
0000
0000
0000
0000
0000
0000
0000
0000
0000
0000
0000
0000
0000
0000
0000
0000
0000
0000
0000
0000
0000
0000
0000
0000
3000
0000
0000
0000
0000
0000
0000
0000
0020
0000
0000
0000
0000
0000
0000
0000
0000
0000
0000
0000
0000
0000
0000
0000
0000
0000
0000
0000
0000
0000
0000
0000
0000
0030
0000
0000
0000
0000
0000
0000
0000
0000
0000
0000
0000
0000
0000
0000
0000
0000
0000
0000
0000
0000
0000
0000
0100
0000
0000
0000
0000
0000
0000
0000
0000
0000
0000
0000
0000
0000
0000
0000
0000
0000
0000
0000
0000
0000
0000
0000
0001
0000
0000
0000
0000
0000
0000
0000
0000
0000
0000
0000
0000
0000
0000
0000
0000
0000
0000
0000
0000
0000
0000
0000
,
0000
0010
0001
0000
1000
0100
1000
0010
,
0002
0000
0000
0000
0000
0000
0000
0000
0000
0000
0000
0000
0000
0000
0000
0000
0000
0000
0000
0000
0000
0000
0000
0000
0000
0000
0000
0000
0000
0000
0000
0000
0000
0000
0000
0000
0000
0003
0000
0000
0000
0000
0000
0000
0000
0000
0000
0000
0020
0000
0000
0000
0000
0000
0000
0000
0000
0000
0000
0000
0000
0000
0000
0000
0000
0000
0000
0000
0000
0000
0000
0000
0000
0000
0000
0000
0000
0000
0000
0000
0000
0000
0000
0000
0000
0000
0000
0030
0000
0000
0000
0000
0000
0000
0000
0000
0200
0000
0000
0000
0000
0000
0000
0000
0000
0000
0000
0000
0000
0000
0000
0000
0000
0000
0000
0000
0000
0000
0000
0000
0000
0000
0000
0000
0000
0000
0000
0000
0000
0000
0000
0000
0000
0000
0000
0300
0000
0000
0000
0000
0000
0000
0000
0000
1000
0000
0000
0000
0000
0000
0000
0000
0000
0000
0000
0000
0000
0000
0000
0000
0000
0000
0000
0000
0000
0000
0000
0000
0001
0000
0000
0000
0000
0000
0000
0000
0000
0000
0000
0000
0000
0000
0000
0000
0000
0000
0000
0000
0000
0000
0000
0000
,
0000
0010
0001
0000
1001
0000
0110
0000
,
0001
0010
1000
0100
0000
1000
0010
0001
,
1000
0100
0001
0000
0010
0001
0010
0000
,
1001
0000
0010
0100
1000
0000
0000
0001
,
0010
0000
0001
0010
0000
1000
0100
1000
,
0010
0000
1001
0000
1001
0000
0000
0100
,
0000
0001
0010
1000
0100
1000
0010
0000
,
0001
0000
0001
0010
0001
0000
0100
1000
,
0010
0000
0001
0100
0000
0010
1000
0100
,
1000
0000
1001
0000
0110
0000
0001
0010
,
0001
0000
0000
1000
0000
0000
0100
0000
1000
0000
0010
0000
0100
0000
0000
0000
,
0001
0000
0011
0000
1000
0100
0010
1000
,
0010
0001
0100
0000
1000
0100
0000
0010
,
0001
0010
1000
0100
0010
1000
0001
0000
,
0010
0000
0100
1000
0001
0010
0100
0001
,
2000
0000
0000
0000
0000
0000
0000
0000
0000
0000
0000
0000
0000
0000
0000
0000
0000
0000
0000
0000
0000
0000
0000
0000
0000
0000
0000
0000
0000
0000
0000
0000
0000
0000
0000
0000
0000
0000
0000
0000
0000
0000
0000
0000
0000
0000
0000
0000
0000
0000
0000
0000
0000
0000
0000
0000
0000
0000
0000
0000
0000
0000
0000
0000
0000
0000
0000
0000
0000
0000
0000
0000
0000
0000
0000
0000
0000
0000
0000
0000
0000
0000
0000
0000
0000
0000
0000
0000
0000
0000
0000
0000
0000
0000
0000
3000
0020
0000
0000
0000
0000
0000
0000
0000
0000
0000
0000
0000
0000
0000
0000
0000
0000
0000
0000
0000
0000
0000
0000
0000
0000
0000
0000
0000
0000
0000
0000
0000
0000
0000
0000
0000
0000
0000
0000
0000
0000
0000
0000
0000
0000
0000
0000
0000
0000
0000
0000
0000
0000
0000
0000
0000
0000
0000
0000
0000
0000
0000
0000
0000
0000
0000
0000
0000
0000
0000
0000
0000
0000
0000
0000
0000
0000
0000
0000
0000
0000
0000
0000
0000
0000
0000
0000
0000
0000
0000
0000
0000
0000
0000
0000
0000
,
0200
0000
0000
0000
0000
0000
0000
0000
0030
0000
0000
0000
0000
0000
0000
0000
0000
0000
0000
0000
0000
0000
0000
0000
0000
0000
0000
0000
0000
0000
0000
0000
0000
0000
0000
0000
0000
0000
0000
0000
0000
0000
0000
0000
0000
0000
0000
0000
0000
0000
0000
0000
0000
0000
0000
0000
0000
0000
0000
0000
0000
0000
0000
0000
0000
0000
0000
0000
0000
0000
0000
0000
0000
0000
0000
0000
0000
0000
0000
0000
0000
0000
0000
0300
0000
0000
0000
0000
0000
0000
0000
0000
0000
0000
0000
0000
0002
0000
0000
0000
0000
0000
0000
0000
0000
0000
0000
0000
0000
0000
0000
0000
0000
0000
0000
0000
0000
0000
0000
0000
0000
0000
0000
0000
0000
0000
0000
0000
0000
0000
0000
0000
0000
0000
0000
0000
0000
0000
0000
0000
0000
0000
0000
0000
0000
0000
0000
0000
0000
0000
0000
0000
0000
0000
0000
0000
0000
0000
0000
0000
0000
0000
0000
0000
0000
0000
0000
0000
0000
0000
0000
0000
0000
0000
0000
0000
0000
0000
0000
0000
0000
0000
0000
0000
0000
0000
0003
0000
0000
0000
0000
0000
,
1000
0000
0010
0000
0100
0000
0001
0010
,
0000
0001
1000
0000
0010
0100
0001
1000
,
1001
0000
0000
0000
;
