#VERSION:0.83;
#TITLE:I WANT YOU (PABLO FLORES CLUB MIX);
#ARTIST:THALIA FEAT. FAT JOE;
#GENRE:HOUSE;
#CREDIT:B. M'Rey;
#MUSIC:I WANT YOU (PABLO FLORES CLUB MIX).ogg;
#BANNER:I WANT YOU (PABLO FLORES CLUB MIX).png;
#BACKGROUND:I WANT YOU (PABLO FLORES CLUB MIX)-bg.png;
#CDTITLE:./CDTITLES/ZIPMANIA 7.PNG;
#SAMPLESTART:45.459;
#SAMPLELENGTH:15.000;
#OFFSET:-0.425;
#BPMS:0.000=129.061;
#DISPLAYBPM:129.000;

//--------------- dance-single - B. M'Rey ----------------
#NOTEDATA:;
#STEPSTYPE:dance-single;
#DESCRIPTION:B. M'Rey;
#DIFFICULTY:Beginner;
#METER:4;
#RADARVALUES:0.150566,0.264432,0.150566,0.112925,0,140,120,20,15,0,0,0.150566,0.264432,0.150566,0.112925,0,140,120,20,15,0,0;
#NOTES:
0000
0000
0000
0000
,
0000
0000
0000
0000
,
0000
0000
0000
0000
,
0000
0000
0000
0000
,
0000
0010
0000
0000
,
0000
0001
0000
0000
,
0000
0100
0000
0000
,
0000
0020
0000
0000
,
0000
0230
0000
0300
,
0000
2000
0000
3000
,
0000
0001
0000
0100
,
0000
1000
0000
0000
,
0000
0020
0000
0030
,
0000
2000
0000
3000
,
0000
0001
0000
1000
,
0000
0010
0000
0100
,
0000
0010
0000
0001
,
0000
0100
0000
1000
,
0000
0010
0000
0100
,
0000
0000
0220
0000
0000
0000
0000
0330
,
0000
0100
0000
0010
,
0000
0001
0000
0100
,
0000
1000
0000
0010
,
0000
2002
0000
3003
,
0000
0001
0000
1000
,
0000
0001
0000
1000
,
1000
1000
0000
0001
,
0000
0001
0000
0001
,
0000
0010
0000
0001
,
0000
0100
0000
0100
,
0010
0001
0000
0010
,
0000
0002
0000
0000
,
0003
0001
0000
1000
,
0000
0001
0000
0001
,
1000
0000
0100
0000
,
0001
0010
0000
0001
,
0000
0010
0000
0001
,
0000
0010
0000
0010
,
0100
0000
0000
1000
,
0000
0001
0010
0000
,
0000
0200
0000
0300
,
0000
0020
0000
0030
,
0000
1000
0000
1000
,
0000
0100
0000
0000
,
0000
1000
0000
0000
,
0000
0100
0000
0000
,
0000
1000
0000
0000
,
0000
1001
0000
0000
,
0000
0110
0000
0000
,
0000
1001
0000
0000
,
0000
2002
0000
3003
,
0000
0110
0000
1010
,
0000
1001
0000
0110
,
0000
0101
0000
1001
,
0000
0011
0000
0110
,
0000
1100
0000
1001
,
0000
0011
0000
0110
,
0000
1001
0000
0011
,
0000
0000
0010
0000
0000
0100
0000
0000
,
1000
0001
0010
0100
,
0000
0001
0100
1000
,
0000
0010
0001
0100
,
0000
0001
0100
1000
,
0000
0010
0001
0100
,
0000
0001
0100
1000
,
0000
0010
0001
0100
,
0000
0000
0001
0000
0000
1000
0000
0000
,
0010
0000
0000
0000
0000
1000
0000
0000
,
0001
0000
0000
0000
0000
0100
0000
0000
,
0200
0000
0000
0000
,
0000
0300
0000
0000
;

//--------------- dance-single - B. M'Rey ----------------
#NOTEDATA:;
#STEPSTYPE:dance-single;
#DESCRIPTION:B. M'Rey;
#DIFFICULTY:Easy;
#METER:8;
#RADARVALUES:0.282849,0.475977,0.286076,0.158094,0,263,225,38,21,0,0,0.282849,0.475977,0.286076,0.158094,0,263,225,38,21,0,0;
#NOTES:
0000
0000
0000
0000
,
0000
0000
0000
0000
,
0000
0000
0000
0000
,
0000
0000
0000
0000
,
0000
0001
0000
1000
,
0000
0100
0000
0001
,
0000
1000
0000
0100
,
0000
0002
0000
0000
,
0000
2003
0000
0000
,
0000
3000
0010
0000
0000
0000
0000
0000
,
1000
0000
0010
0000
,
0002
0000
0003
0000
,
2000
0000
0000
3000
,
0000
0100
0000
0000
0000
0000
0000
0000
,
1000
0000
0010
0000
,
0020
0000
0030
1000
,
0000
0001
0001
0100
,
0100
1000
1000
0010
,
0010
0001
0001
1000
,
1000
0000
1001
0000
0000
0110
0000
0000
,
0000
1000
1000
0001
,
0001
0100
0100
1000
,
1000
0010
0010
0001
,
0001
0110
0110
0110
,
0000
0200
0301
0020
,
1030
0100
0010
0100
,
0010
0001
1000
0100
,
0001
0100
1000
0100
,
0001
0002
1003
0200
,
0301
1000
0001
1000
,
0001
0100
0100
0001
,
0100
0200
0000
0000
,
0300
0200
0301
0020
,
1030
0100
0010
0100
,
0010
0001
1000
0200
,
0302
0103
0000
0100
,
0000
0002
1003
0200
,
1300
0001
1000
0001
,
1000
0001
0010
0001
,
0100
2000
0000
3002
,
0000
2003
0000
3002
,
0000
1003
0010
1000
,
0010
0010
1000
0010
,
0010
1000
0000
0100
,
0000
1000
0000
1000
,
0000
0100
0000
1000
,
0000
0010
0000
0100
,
0010
0110
1000
0100
,
0001
1001
0100
1000
,
0100
0110
0001
0010
,
1000
0110
0000
0110
,
0000
0011
0110
1100
,
0110
0011
0110
1100
,
0110
0011
0110
1100
,
0110
0011
0110
1100
,
0110
0011
0110
1100
,
0110
0011
0110
1100
,
0110
0011
0110
1100
,
0110
0000
0001
0001
0000
1000
1000
0000
,
0010
0010
0100
0000
0001
0000
1000
0100
,
0010
0000
0100
0000
0001
0000
1000
0001
,
0010
0000
0100
0000
0001
0000
1000
0100
,
0010
0000
0100
0000
0001
0000
1000
0100
,
0010
0000
0100
0000
0001
0000
1000
0001
,
0010
0000
0100
0000
0001
0000
1000
0100
,
0010
0100
0001
1000
,
0010
0000
0100
0100
0000
0010
0010
0000
,
0001
0001
0001
0001
0000
0010
0010
0000
,
0100
0100
0100
0100
0000
1000
1000
0000
,
0100
0100
2000
0000
0000
0000
0000
0000
,
0000
3001
0000
0000
;

//--------------- dance-single - B. M'Rey ----------------
#NOTEDATA:;
#STEPSTYPE:dance-single;
#DESCRIPTION:B. M'Rey;
#DIFFICULTY:Medium;
#METER:12;
#RADARVALUES:0.436642,0.687523,0.511925,0.127981,0.015057,406,338,68,17,0,0,0.436642,0.687523,0.511925,0.127981,0.015057,406,338,68,17,0,0;
#NOTES:
0000
0000
0000
0000
,
0000
0000
0000
0000
,
0000
0000
0000
0000
,
0000
0000
0000
0000
,
0000
0100
0100
0010
,
0010
1000
1000
0100
,
0100
0010
0010
1000
,
1000
0200
0000
0000
,
0000
0320
0000
0000
,
0000
0130
0002
0000
0000
0000
0003
0000
,
0010
0000
0010
1000
0001
0100
0010
1000
,
0100
0002
0000
0000
0003
0000
0000
0000
,
0010
0002
0000
0000
0000
0000
0003
0000
,
0000
2000
0000
0000
0000
0000
3000
0000
,
0010
0000
0001
1000
0001
0100
0010
1000
,
0001
0002
0000
0000
0003
0000
0010
0100
,
1000
0000
0100
0001
0100
0000
1000
0001
,
1000
0000
0010
1000
0010
0000
0001
1000
,
0001
0000
0100
0001
0100
0000
0010
1000
,
0010
0000
0010
0010
0000
0100
0100
0100
,
0000
0000
0010
1000
0010
0000
0100
0001
,
0100
0000
1000
0001
1000
0000
0010
1000
,
0010
0000
0001
1000
0001
0000
0100
0001
,
0100
0000
1001
0110
1001
0110
1001
0110
,
0000
2000
3100
0002
,
0013
0000
1000
0000
0001
0000
1000
0010
,
0001
0000
0100
0010
0010
0000
1000
0100
,
0100
0000
1000
0010
0010
0000
1000
0100
,
0100
0200
0310
2000
,
3100
0000
0010
0000
0100
0000
0010
0001
,
0100
0000
0000
1000
1000
0100
0000
1000
,
1000
0010
1000
0000
0001
0000
0100
0000
,
1000
2000
3100
0002
,
0013
0000
1000
0000
0001
0000
1000
0010
,
0001
0100
0010
2000
,
3200
0000
1300
0010
0010
1000
1000
0100
,
0100
0200
0310
2000
,
3010
0000
0100
0000
0010
0000
0100
0010
,
0100
0100
0001
0100
,
1000
0000
0000
0000
0010
0000
0100
0000
0000
0001
0000
0000
0010
0000
0000
1000
,
0000
0000
0000
0000
0010
0000
0100
0000
0000
0001
0000
0000
0010
0000
0000
1000
,
0000
0000
0010
0100
0001
1000
0010
1000
,
0001
0100
1001
0000
1001
0000
1001
0000
,
1001
0000
0010
0000
0100
0000
1000
0100
,
0001
0000
0010
0000
1000
0000
0010
0001
,
0100
1000
0001
0010
,
1000
0100
0001
0000
0100
0000
1000
0000
,
0001
0001
0001
0000
0010
0000
1000
0000
,
0100
0100
0100
0000
1000
0000
0010
0000
,
1000
1000
1000
0000
0100
0000
0001
0000
,
0010
0000
1001
1001
0000
0110
0110
0110
,
0000
0110
0011
1100
,
0011
0110
0011
1001
,
0101
0110
1001
0011
,
1100
1001
0110
0011
,
0011
1100
1100
1010
,
1010
0101
0101
1001
,
1001
0110
0110
0011
,
1100
0000
1100
1100
0000
0011
0011
0000
,
1001
0110
1000
0010
0100
0001
1000
0010
,
0100
0001
1000
0010
0100
0001
1000
0010
,
0100
0001
1000
0010
0100
0001
1000
0010
,
0100
0001
1000
0010
0100
0001
1000
0010
,
0100
0001
0100
1000
0001
0010
0100
1000
,
0001
0010
0100
1000
0001
0010
0100
1000
,
0001
0010
0100
1000
0001
0010
0100
1000
,
0001
0010
0110
0110
0000
1001
1001
0000
,
0110
1001
0110
1001
0000
0011
1100
0000
,
1100
1100
1100
1100
0000
0101
0101
0000
,
1010
0101
0001
0010
0001
0010
0100
0010
,
0100
0010
1001
0000
0000
0000
0000
0000
;

//--------------- dance-single - B. M'Rey ----------------
#NOTEDATA:;
#STEPSTYPE:dance-single;
#DESCRIPTION:B. M'Rey;
#DIFFICULTY:Hard;
#METER:13;
#RADARVALUES:0.557095,0.687523,0.647434,0.052698,0.214557,518,432,86,7,0,0,0.557095,0.687523,0.647434,0.052698,0.214557,518,432,86,7,0,0;
#NOTES:
0000
0000
0000
0000
,
0000
0000
0000
0000
,
0000
0000
0000
0000
,
0000
0000
0000
0000
,
0000
1000
0001
0010
,
0100
0001
1000
0000
0100
0000
0010
0000
,
1000
0010
0100
0000
0001
0000
0010
0000
,
0001
0000
0000
0000
0000
0000
1001
0000
0000
1001
0000
0000
1001
0000
0000
1001
,
0000
0002
0000
0000
0003
0000
0000
0000
,
1000
0010
0100
0000
0000
0000
0000
0000
,
0001
0010
0001
0000
0010
0000
0100
0000
1000
0000
0010
0000
0001
0000
0100
0000
,
0010
0000
1000
0000
0001
0000
0000
0000
0000
0000
0000
0000
0000
0000
0000
1000
,
0010
0000
0100
0001
0000
0000
0000
0000
0000
0000
0000
0000
0000
0000
0000
0000
,
0000
0100
0010
0000
0000
0000
0000
0000
,
0001
1000
0100
0001
0010
0100
0010
1000
,
0100
0000
0001
0000
0010
0000
0000
0000
0000
0000
1000
0100
1000
0000
0010
0000
,
0100
0000
0001
0000
0010
0000
0100
0000
1000
0000
0000
0010
0100
0000
0010
0001
,
0000
0010
1000
0000
0100
0000
0100
0010
0100
0000
0000
0010
0001
0000
1000
0100
,
0000
0010
0001
0000
0001
0000
1000
0000
0010
0000
0100
0000
0001
0000
0010
0000
,
1000
0100
0110
0110
0000
1001
1001
1001
,
0000
0000
0000
0000
0001
0000
1000
0000
0010
0000
0100
0010
0100
0000
0001
0010
,
0000
0000
1000
0100
0000
0001
0010
0001
0010
0000
1000
0100
1000
0000
0100
1000
,
0000
0100
1000
0000
0010
0000
0001
0000
0100
0000
0010
0000
1000
0000
0010
0000
,
0100
0001
0110
0110
1001
1001
0110
0110
,
0000
0000
0000
0000
0020
0000
0000
0000
1030
0000
0000
0100
0000
0000
0010
0000
,
0001
0000
0010
0100
0010
0100
0010
0100
,
0010
1000
1000
0001
0001
0010
0010
1000
,
1000
0010
0010
0001
0001
0010
0010
1000
,
1000
0000
0000
0000
2000
0000
0000
0000
3001
0000
0000
0010
0000
0000
0100
0000
,
1000
0000
1000
0001
1000
0001
1000
0001
,
1000
0000
0010
0001
0000
0100
0010
0100
0010
0000
1000
0000
0000
0100
0010
0100
,
0010
0000
0001
0000
0000
1000
0000
0000
0100
0000
0000
0010
0000
0000
0001
0000
,
0010
0000
0000
0000
0020
0000
0000
0000
1030
0000
0000
0100
0000
0000
0010
0000
,
0001
0000
0010
0100
0010
0100
0010
0100
,
0010
0000
1000
0001
1000
0001
0020
0000
,
2030
0000
3010
0001
0001
0010
0010
1000
,
1000
0000
0000
0000
2000
0000
0000
0000
3001
0000
0000
0010
0000
0000
0100
0000
,
1000
0000
1000
0001
1000
0001
1000
0001
,
1000
0000
0000
1000
0100
1000
0100
0000
,
0010
0000
0000
0000
0001
0000
1000
0000
0000
0100
0000
0000
0001
0000
0000
0010
,
0000
0000
0100
0000
1000
0000
0100
0000
0000
0010
0000
0000
0001
0000
0000
1000
,
0000
0010
1000
0100
1000
0100
0010
0100
,
0010
0001
0010
0001
0010
0100
0010
0100
,
1000
0100
1001
0000
0110
0000
0001
0010
,
1000
0100
1001
0000
0110
0000
0001
0010
,
0100
1000
0110
0000
1001
0000
0100
0010
,
0001
1000
0110
0000
1001
0000
0100
0010
,
1000
0100
1001
0001
0010
0100
0001
1000
,
0010
0110
1001
1000
0010
0100
0001
1000
,
0010
0110
1001
1000
0010
1000
0100
0001
,
0010
0100
0110
0110
0000
1001
1001
1001
,
0010
0001
0110
0000
0011
0000
1100
0000
,
0011
0110
0011
1001
,
0101
0110
1001
0011
,
1100
1001
0110
0011
,
0011
1100
1100
1010
,
1010
0101
0101
1001
,
1001
0110
0110
0011
,
1100
0000
1100
1100
0000
0011
0011
0000
,
0110
0000
0110
0000
0010
0000
0100
0000
1000
0000
0000
0010
0100
0000
0010
0001
,
0000
0010
1000
0000
0100
0000
0100
0010
0100
0000
0000
0010
0001
0000
1000
0100
,
0000
0010
0001
0000
1000
0000
0001
0000
0100
0000
0000
1000
0001
0000
1000
0010
,
0000
1000
0100
0000
0001
0000
0001
1000
0001
0000
0000
1000
0010
0000
0100
0001
,
0000
1000
0010
0000
0001
0000
1000
0000
0010
0000
0000
0001
1000
0000
0001
0100
,
0000
0001
0010
0000
1000
0000
1000
0001
1000
0000
0000
0001
0100
0000
0010
1000
,
0000
0001
0100
0000
0100
0000
0010
0000
0001
0000
1000
0000
0100
0000
0001
0000
,
0010
1000
1001
1001
0000
0110
0110
0000
,
0011
1100
0011
1100
0000
1001
1001
0000
,
1010
0101
1010
0101
0000
0110
0110
0000
,
0011
1100
0001
1000
0010
0100
0001
0010
,
1000
0001
1001
0000
0000
0000
0000
0000
;
