#TITLE:I WANNA DANCE;
#SUBTITLE:(Japaneses Ver.);
#ARTIST:DOMINO;
#GENRE:EUROBEAT;
#CREDIT:B. M'Rey;
#MUSIC:I WANNA DANCE (Japaneses Ver.).ogg;
#BANNER:I WANNA DANCE (Japaneses Ver.)-bn.png;
#BACKGROUND:I WANNA DANCE (Japaneses Ver.)-bg.png;
#CDTITLE:./CDTitles/para para paradise.png;
#SAMPLESTART:37.744;
#SAMPLELENGTH:12.000;
#OFFSET:-0.227;
#BPMS:0.000=152.086;

//--------------- dance-single - B. M'Rey ----------------
#NOTES:
     dance-single:
     B. M'Rey:
     Beginner:
     2:
     0.229,0.215,0.147,0,0:
0000
0000
0000
0000
,
1000
0000
0001
0000
,
0100
0000
0000
0000
,
0010
0000
0100
0000
,
0001
0000
0000
0000
,
1000
0000
0100
0000
,
0010
0000
0000
0000
,
0001
0000
1000
0000
,
0100
0000
0000
0000
,
0001
0001
0000
0000
,
0100
0000
0010
0000
,
1000
0000
0100
0000
,
0001
0000
0001
0000
,
1000
1000
0000
0000
,
0010
0000
0100
0000
,
0001
0000
0010
0000
,
0001
0010
0000
0000
,
0100
1000
0100
0000
,
0001
0010
0001
0000
,
0100
0000
0010
0000
,
1000
0000
0100
0000
,
0001
0001
0001
0000
,
1000
1000
1000
0000
,
0010
0000
0100
0000
,
1001
0000
0000
0000
,
0010
0010
0010
0000
,
0100
0000
0000
0000
,
1000
1000
1000
0000
,
0100
0000
0000
0000
,
0001
1000
0001
1000
,
0001
0000
0000
0000
,
0010
0100
0010
0000
,
0001
0000
0000
0000
,
1000
1000
1000
0000
,
0010
0000
0000
0000
,
0100
0100
0100
0000
,
0001
0000
0000
0000
,
0001
1000
0001
1000
,
0001
0000
0000
0000
,
0100
0010
0100
0000
,
0001
0000
1000
0000
,
0001
0000
1000
0000
,
0010
0000
0000
0000
,
0100
0000
0010
0000
,
1000
0000
0000
0000
,
0001
0000
0100
0000
,
0010
0000
0000
0000
,
1000
0000
0100
0000
,
1000
0000
0000
0000
,
1001
0000
0000
0000
;

//--------------- dance-single - B. M'Rey ----------------
#NOTES:
     dance-single:
     B. M'Rey:
     Easy:
     3:
     0.328,0.307,0.061,0,0:
0000
0000
0000
0000
,
0001
0010
0100
1000
,
0010
0000
0001
0000
,
0100
1000
0010
1000
,
0010
0000
0001
0000
,
0010
0100
0001
1000
,
0100
0000
0001
0000
,
0010
0100
0010
0100
,
0001
0000
0100
0000
,
0001
0100
0010
1000
,
0010
0100
0010
1000
,
0100
0010
0100
0010
,
0000
1000
0010
0000
,
0100
0010
0100
0010
,
0100
1000
0010
0000
,
0010
0100
0010
1000
,
0001
1000
0000
0100
,
0010
0100
0010
0000
,
0001
0100
0001
0100
,
0010
0100
0001
0000
,
0100
1000
0001
1000
,
0001
0000
0010
1000
,
0001
0000
0010
0100
,
0001
0000
0001
0010
,
0100
0000
0100
0000
,
0010
0100
0001
1000
,
0100
0000
0001
0000
,
0100
1000
0001
1000
,
0010
0000
0010
0000
,
0001
0010
0100
0010
,
0100
0000
0001
0000
,
0001
1000
0100
0010
,
0001
0000
0001
0000
,
0100
1000
0010
1000
,
0001
0000
0100
0000
,
0100
0010
0001
1000
,
0010
0000
0001
0000
,
0010
1000
0001
1000
,
0100
0000
0001
0000
,
0010
0100
0010
0100
,
0001
0000
0001
1000
,
0010
1000
0001
0010
,
0100
0000
0001
0000
,
0001
0010
0001
0010
,
0100
0000
0001
0000
,
0100
1000
0100
0010
,
0001
0000
0100
0000
,
0001
0010
0001
1000
,
0100
0000
0010
0000
,
1001
0000
0000
0000
;

//--------------- dance-single - B. M'Rey ----------------
#NOTES:
     dance-single:
     B. M'Rey:
     Medium:
     6:
     0.389,0.368,0.049,0,0:
0000
0000
0000
0000
,
0010
0000
0010
0000
0100
0010
0001
0000
,
0100
0010
0100
1000
,
0010
0000
0001
0000
0001
0010
0100
0010
,
0001
1000
0001
0100
,
0010
0000
0001
0000
0001
0100
0001
0000
,
0001
0010
0001
0100
,
0010
0000
0001
0000
0100
1000
0100
0000
,
0001
0000
0001
0000
0100
0010
0100
0000
,
0001
0000
0000
0010
0000
0000
0010
0000
0100
0000
0000
0000
0001
0000
0000
0000
,
0010
0000
0000
0010
0000
0000
1000
0000
0000
0000
1000
0000
0001
0000
0000
0000
,
0001
0100
0010
0100
0000
0010
0100
0000
,
0001
0010
0000
0010
0000
0100
0010
0000
,
0001
0000
0000
0010
0000
0000
1000
0000
0010
0000
0100
0000
0010
0000
1000
0000
,
0100
0000
0000
0100
0000
0000
0010
0000
0001
0000
0000
0000
0010
0000
0000
0000
,
0010
1000
0000
0100
0001
0010
0100
0000
,
0100
0010
0001
0100
0000
1000
0100
0010
,
0100
0000
0001
0010
0001
0000
0100
1000
,
0100
0000
0001
0010
0001
0100
0010
1000
,
0100
0010
0001
1000
,
0001
1000
0010
0100
,
0010
1000
0100
0010
0100
0000
0100
0000
,
0001
1000
0010
0100
0001
0010
0000
0100
,
0001
0100
0001
1000
0000
0000
0100
0010
,
0001
0000
0000
0101
0000
0110
0000
0000
,
0010
1000
0100
1000
0010
0100
0010
0000
,
0100
1000
0010
1000
,
0001
1000
0001
0010
0001
0100
0010
0000
,
0100
0000
1000
0000
0010
0000
1000
0100
,
0001
1000
0100
0010
0100
0010
0100
0000
,
0010
0001
0100
0010
,
0100
1000
0001
0010
0001
1000
0010
0000
,
0100
0000
1000
0000
0100
0000
1000
0100
,
0001
0010
0001
0010
0001
1000
0010
1000
,
0010
1000
0010
0100
,
0001
1000
0100
0010
0001
0010
0100
0000
,
0001
1000
0010
0100
,
0010
0100
0001
0100
0001
0010
0001
1000
,
0100
1000
0010
1000
,
0001
1000
0010
0100
0001
1000
0010
1000
,
0010
0000
0000
0100
0000
0000
0001
0000
0000
0000
1000
0000
0001
0000
1000
0000
,
0010
0000
0010
0000
0001
0100
0001
0000
,
0001
0100
0010
1000
,
0010
0000
0100
0000
0010
0100
0001
0000
,
0100
1000
0100
1000
,
0001
0000
0010
0000
0001
0100
0001
0000
,
0001
0010
0100
1000
,
0100
0000
1000
0000
0001
0100
0001
0000
,
0100
0010
0100
0010
,
0001
1000
0010
0000
0000
0000
0000
0000
;

//--------------- dance-single - B. M'Rey ----------------
#NOTES:
     dance-single:
     B. M'Rey:
     Hard:
     9:
     0.663,0.648,0.171,0.073,0.537:
0000
0000
0000
0000
,
1000
0100
0000
0010
0001
0000
1000
0001
0000
0001
1000
0000
0020
0000
0000
0000
,
0100
0030
0000
0001
0000
0000
1000
0000
0000
0000
0001
0000
1000
0000
0001
0000
,
1000
0100
0000
0001
0010
0000
0001
1000
0000
0010
0001
0000
0020
0000
0030
0000
,
1000
0000
0000
0100
0000
0000
1000
0000
0000
0000
1000
0000
0001
0000
1000
0000
,
0100
1000
0000
0010
0001
0000
1000
0100
0000
1000
0100
0000
0010
0000
0100
0000
,
0001
1000
0000
0010
0000
0000
0100
0000
0000
0000
1000
0000
0010
0000
1000
0000
,
0100
0010
0000
0001
1000
0000
0100
0001
0000
0010
1000
0000
0011
0000
0011
0000
,
0010
0001
0000
0100
0000
0000
0100
0000
0000
0000
1000
0000
0100
0000
1000
0000
,
1001
0000
0000
1001
0000
0000
0010
0000
1000
0000
0100
0000
0001
0000
0100
0000
,
1000
0010
0000
1000
0000
0010
0001
0010
,
1000
0100
0001
1000
0100
0010
0001
1000
,
0001
1000
0100
1000
0100
0010
0001
1000
,
1001
0000
0000
1001
0000
0000
1000
0000
0100
0000
0001
0000
0010
0000
1000
0000
,
1000
0000
0000
0001
0000
0000
1000
0000
0001
0000
0000
0000
0001
0000
0100
0000
,
1000
0010
0001
0010
1000
0100
0001
0100
,
1000
0010
0001
1000
0000
0010
0001
0100
,
0001
0010
1000
0100
0001
0000
0010
1000
,
0010
0001
0010
1000
0001
0000
1000
0001
,
0001
0000
0110
0000
0110
0000
0010
0001
,
1000
0001
0010
1000
0100
0001
0100
0000
,
0110
0000
1000
0100
0001
0010
0001
0000
,
0110
0000
1000
0100
0001
0010
1000
0000
,
1000
0001
1000
0001
0000
0000
0010
0100
,
0010
0000
0000
1000
0000
0001
0000
0000
,
1000
0010
0000
1000
0100
0000
1000
0010
0000
0100
0001
0000
0010
0000
0100
0000
,
1000
0000
0000
0001
0000
0000
0100
0000
0000
0000
1000
0000
0001
0000
1000
0000
,
1000
0100
0000
0100
1000
0000
0010
0001
0000
1000
0010
0000
0001
0000
1000
0000
,
0001
1000
0100
1000
0000
0010
0100
0010
,
1000
0001
0000
1000
0001
0000
1000
0001
0000
1000
0001
0000
0010
0000
0001
0000
,
0010
0000
0000
1000
0000
0000
0001
0000
0000
0000
0001
0000
0010
0000
1000
0000
,
0010
0100
0000
0010
0100
0000
0010
0100
0000
0010
0100
0000
1000
0000
0010
0000
,
1000
0000
0000
0100
0000
0000
0001
0000
0000
0000
0001
0000
0010
0000
0100
0000
,
1000
0100
0000
0010
0001
0000
0100
1000
0000
1000
0010
0000
1000
0000
0010
0000
,
0100
0000
0000
0010
0000
0000
1000
0000
0000
0000
0001
0000
0100
0000
1000
0000
,
0001
0100
0000
0100
1000
0000
1000
0010
0000
0010
0001
0000
0100
0000
1000
0000
,
0010
0000
0000
0001
0000
0000
0100
0000
0000
0000
0010
0000
0010
0000
0010
0000
,
0100
0010
0000
1000
0001
0000
0010
0100
0000
0001
1000
0000
1000
0000
0010
0000
,
1000
0000
0000
0001
0000
0000
0010
0000
0000
0000
0010
0000
0010
0000
0010
0000
,
1000
0100
0000
0100
0001
0000
0001
0100
0000
0100
1000
0000
0001
0000
0011
0000
,
0110
0000
0000
1010
0000
0000
1001
0000
0000
0000
1000
0000
0001
0000
0001
0000
,
0100
0001
0000
1000
0010
0000
0100
0010
0000
0010
0100
0000
2000
0000
0000
0000
,
0001
3000
0000
0010
0000
0000
0100
0000
0000
0000
0010
0000
0100
0000
0010
0000
,
0100
0001
0000
0010
1000
0000
0010
0100
0000
1000
0010
0000
2000
0000
3000
0000
,
0100
0000
0000
0001
0000
0000
0100
0000
0000
0000
0100
0000
0010
0000
0100
0000
,
0001
0010
0000
0100
1000
0000
0001
1000
0000
1000
0001
0000
0200
0000
0000
0000
,
0010
0300
0000
1000
0000
0000
0001
0000
0000
0000
1000
0000
0001
0000
1000
0000
,
0001
0010
0000
1000
0100
0000
1000
0001
0000
0100
1000
0000
0200
0000
0300
0000
,
0001
0000
0000
0010
0000
0000
0001
0000
0000
0000
0001
0000
1000
0000
0000
0000
,
0010
0000
0010
0100
0010
0000
0000
0000
0000
0000
0000
0000
0000
0000
0000
0000
;
