#TITLE:I LOVE YOU BABY;
#ARTIST:PANDERA;
#GENRE:REGGAE-POP;
#CREDIT:B. M'Rey;
#MUSIC:I Love You Baby.ogg;
#BANNER:I Love You Baby-bn.png;
#BACKGROUND:I Love You Baby-bg.png;
#CDTITLE:./CDTITLES/DANCEMANIA SUMMERS 2002.PNG;
#SAMPLESTART:31.280;
#SAMPLELENGTH:12.000;
#OFFSET:-0.438;
#BPMS:0.000=100.000;

//--------------- dance-single - B. M'Rey ----------------
#NOTES:
     dance-single:
     B. M'Rey:
     Beginner:
     1:
     0,0,0,0,0:
0000
0000
0000
0000
,
0000
0000
0000
0000
,
0000
0000
0000
0000
,
0000
0000
0000
0000
,
0000
0000
0000
0000
,
1000
0000
0000
0000
,
0100
0000
0000
0000
,
0001
0000
0000
0000
,
0010
0000
0100
0000
,
0010
0000
0000
0000
,
0001
0000
0000
0000
,
1000
0000
0000
0000
,
0010
0000
0100
0000
,
0001
0001
0001
0000
,
0100
0000
0000
0000
,
1000
1000
1000
0000
,
0100
0000
0000
0000
,
0010
0010
0010
0000
,
0100
0000
0000
0000
,
0100
0100
0100
0000
,
0010
0000
0000
0000
,
0001
0000
0001
0000
,
1000
0000
1000
0000
,
0100
0000
1000
0000
,
0010
0000
0100
0000
,
0001
0000
0010
0000
,
0100
0000
0001
0000
,
0010
0000
0001
0000
,
1000
0000
0010
0000
,
0100
0000
0000
0000
,
0001
0000
0000
0000
,
1000
0000
0000
0000
,
0010
0000
0000
0000
,
0100
0000
0000
0000
,
0000
0000
0000
0000
,
0010
0000
0000
0000
,
0000
0000
0000
0000
,
0001
0000
0000
0000
,
0010
0000
0000
0000
,
0001
0000
0000
0000
,
1000
0000
0000
0000
,
0100
0000
0000
0000
;

//--------------- dance-single - B. M'Rey ----------------
#NOTES:
     dance-single:
     B. M'Rey:
     Easy:
     2:
     0,0,0,0,0:
0000
0000
0000
0000
,
0000
0000
0000
0000
,
0000
0000
0000
0000
,
0001
0000
0001
0000
,
0010
0000
0010
0000
,
0010
0100
0001
0000
,
0001
1000
0001
0000
,
0100
1000
0100
0000
,
0100
0010
0001
0000
,
0001
0100
0001
0000
,
0100
0010
0100
0000
,
0100
1000
0001
0000
,
0001
0010
0001
0000
,
0100
0000
0010
0000
,
0100
1000
0001
0000
,
0001
0000
0010
0000
,
0100
0010
0100
0000
,
0100
0000
0010
0000
,
0001
0100
0001
0000
,
0001
0000
0100
0000
,
0100
0010
0001
0000
,
0001
0000
0001
1000
,
0010
0000
0010
0100
,
0010
0000
0001
1000
,
0000
1000
0100
0010
,
0000
0010
0100
1000
,
0000
0100
0010
1000
,
0000
1000
0001
1000
,
0000
0010
0100
0000
,
0100
0000
0010
0000
,
0100
1000
0010
0000
,
0010
0000
0001
0000
,
0001
1000
0100
0000
,
0200
0000
0000
0000
,
0301
0000
0011
0000
,
0200
0000
0000
0000
,
0310
0000
0011
0000
,
0001
0100
0001
0000
,
0010
0100
0010
0000
,
0010
1000
0001
0000
,
0010
0100
0001
0000
,
0100
0000
0000
0000
;

//--------------- dance-single - B. M'Rey ----------------
#NOTES:
     dance-single:
     B. M'Rey:
     Medium:
     3:
     0,0,0,0,0:
0000
0000
0000
0000
,
0000
0000
0000
0000
,
0000
0000
0000
0000
,
0001
1000
0001
1000
,
0001
0010
0100
1000
,
0100
0000
1000
0000
0100
0010
0001
0000
,
0001
0000
0010
0000
0001
0000
0010
0100
,
1000
0000
1000
0000
0100
1000
0100
0000
,
0100
0000
0010
0000
0001
0010
0001
0000
,
0001
0000
0010
0000
0100
1000
0100
0000
,
0100
0000
0010
0000
0100
0010
0001
0000
,
0001
0000
0010
0000
0001
1000
0001
0000
,
0001
0000
1000
0000
0100
1000
0100
0000
,
0100
0010
0100
0010
,
0001
0010
0001
0000
0001
0000
0100
0000
,
0001
0000
0100
0010
0100
0000
0100
0000
,
0010
0000
1000
0000
0010
1000
0001
0000
,
0001
0100
0001
0100
,
0001
0000
1000
0000
0100
1000
0001
0000
,
0001
0000
1000
0001
0100
0000
0100
0000
,
0001
0100
0020
0000
,
0130
0000
1000
0000
0010
0001
1000
0000
,
0001
0000
1000
0000
0010
0001
0100
0000
,
0001
0000
0100
0000
0010
0100
1000
0000
,
0010
0000
1000
0000
0010
0001
0100
0000
,
0001
0000
1000
0000
0100
0001
0010
0000
,
0100
0000
0010
0000
0001
0010
1000
0000
,
0001
0000
1000
0000
0001
0100
0010
0000
,
0100
0000
0010
0000
0100
1000
0010
0000
,
0001
1000
0001
1000
,
0001
0000
0010
0000
0100
0001
0010
0000
,
0100
0010
0001
1000
,
0100
0000
1000
0000
0100
0001
1000
0000
,
0002
0010
0000
0010
,
0000
0003
0010
0000
0110
0000
0000
0000
,
0002
0100
0000
0100
,
0000
0103
1010
0000
,
0001
0000
0100
0000
0001
1000
0100
0000
,
0001
0000
0010
0000
0100
0001
0010
0000
,
0100
0000
0010
0000
0001
0010
1000
0000
,
0001
0000
0010
0000
0001
1000
0010
0000
,
0110
0000
0000
0000
;

//--------------- dance-single - B. M'Rey ----------------
#NOTES:
     dance-single:
     B. M'Rey:
     Hard:
     5:
     0,0,0,0,0:
0000
0000
0000
0000
,
0000
0000
0000
0000
,
0000
0000
0000
0000
,
0100
1000
0001
1000
0001
1000
0000
0100
,
0010
0100
0010
1000
0001
0000
0001
0000
,
0010
0100
0010
0000
0010
0100
0001
0010
,
0000
0100
0001
0000
0010
0100
0010
1000
,
0001
1000
0001
0000
0100
0010
0001
0010
,
0000
0010
0100
0000
0100
1000
0001
1000
,
0000
0010
0001
0000
0100
0010
0100
1000
,
0000
1000
0010
0000
0010
0100
0010
0100
,
0001
0100
0001
0000
0001
0010
0100
0010
,
0000
1000
0100
0000
0001
1000
0001
0000
,
0001
0100
0010
0100
1010
0000
1010
0000
,
0100
0010
0100
1000
0100
0010
0001
0000
,
0101
0000
0001
1000
1010
0000
1100
0000
,
0001
0000
0000
0100
0000
0000
0100
0000
0010
0000
0100
0000
0001
0000
0000
0000
,
1010
0000
0010
1000
0101
0000
0110
0000
,
0001
0100
0010
1000
0001
0010
0001
0000
,
1001
0000
0010
1000
1001
0000
0011
0000
,
0001
0000
0000
0010
0000
0000
0100
0000
0000
1000
0000
0000
0100
0000
0000
0000
,
0001
1000
0001
0000
0001
1000
0010
1000
,
0010
1000
0100
0010
0100
0010
0100
1000
,
0001
0010
0001
0010
0001
1000
0010
0000
,
0001
1000
0001
0010
0100
0010
0100
0010
,
0001
1000
0001
1000
0001
0100
0010
0100
,
0010
0100
0001
1000
0100
1000
0100
1000
,
0001
0010
0001
0010
0001
1000
0010
1000
,
0010
1000
0100
0010
0100
0010
0100
1000
,
0001
0000
1000
0000
0010
0000
0000
1000
0000
0000
0100
0000
0000
0000
0010
0000
,
0100
1000
0010
1000
0010
1000
0001
0100
,
0001
0000
0100
0000
0001
0000
0000
1000
0000
0000
0010
0000
0000
0000
0010
0000
,
0100
1000
0010
0100
0010
0100
0010
1000
,
0002
0203
0302
0203
,
0302
0023
0230
0320
,
0230
0320
0032
2003
,
3200
1300
0101
0000
,
0001
1000
0010
1000
0010
1000
0001
0100
,
0000
0100
0001
0000
0100
1000
0100
1000
,
0010
0100
0001
1000
0001
1000
0001
0100
,
0000
0100
0010
0100
0001
1000
0001
1000
,
0001
0000
0000
0000
;
