#VERSION:0.83;
#TITLE:I Believe In Miracles (HYPER MOMO MIX);
#ARTIST:HI-RISE;
#GENRE:HAPPY HARDCORE;
#CREDIT:B. M'Rey;
#MUSIC:I Believe In Miracles (HYPER MOMO MIX).ogg;
#BANNER:I Believe In Miracles (HYPER MOMO MIX)-bn.png;
#BACKGROUND:I Believe In Miracles (HYPER MOMO MIX)-bg.png;
#CDTITLE:./CDTITLES/DANCEMANIA SPEED 7.PNG;
#SAMPLESTART:44.426;
#SAMPLELENGTH:15.000;
#OFFSET:-0.171;
#BPMS:0.000=172.000;

//--------------- dance-single - B. M'Rey ----------------
#NOTEDATA:;
#STEPSTYPE:dance-single;
#DESCRIPTION:B. M'Rey;
#DIFFICULTY:Beginner;
#METER:4;
#RADARVALUES:0.161,0.175,0.1,0.125,0;
#NOTES:
0000
0000
0000
0000
,
0000
0000
0000
0000
,
0000
0000
0000
0000
,
0000
0000
0000
0000
,
0000
0000
0000
0000
,
0000
0000
0000
0000
,
0000
0000
0000
1000
,
0000
0000
0000
0001
,
0000
0000
0000
0100
,
0000
0000
0000
0010
,
0000
0000
0000
0002
,
0000
0000
0000
1003
,
0000
0010
0000
0100
,
0000
0001
0000
0010
,
0000
1000
0000
0200
,
0000
0000
0000
0310
,
0000
0001
0000
1000
,
0000
0100
0000
0010
,
0000
1000
0000
0002
,
0000
0000
0000
1003
,
0000
0100
0000
0010
,
0000
1000
0000
0001
,
0000
0100
0000
0010
,
0000
0000
0000
1000
,
0000
0001
0000
0010
,
0000
0100
0000
0010
,
0000
1000
0000
0002
,
0000
0000
0000
0000
0000
0003
1001
0000
,
0000
0000
0000
0110
,
0000
0000
0000
0011
,
0000
0000
0000
2000
,
0000
0000
0000
0000
0000
3000
1001
0000
,
0000
0000
0000
0110
,
0000
0000
0000
0101
,
0000
0000
0000
0020
,
0000
0000
0000
0000
0000
0030
1000
0000
,
0000
0100
0000
0010
,
0000
0001
0000
0010
,
0000
0100
0000
2000
,
0000
0000
0000
3001
,
0000
0010
0000
0100
,
0000
1000
0000
0100
,
0000
0010
0000
0002
,
0000
0000
0000
1003
,
0000
0000
0000
0001
,
0000
0000
0000
0100
,
0000
0000
0000
0010
,
0000
0000
0000
1000
,
0000
0000
0000
0001
,
0000
0000
0000
0100
,
0000
0000
0000
0020
,
0000
0000
0000
0000
0000
0030
0001
0000
,
0000
1000
0000
0010
,
0000
0100
0000
0001
,
0000
0100
0000
0020
,
0000
0000
0000
0000
0000
0030
0100
0000
,
0000
0001
0000
1000
,
0000
0010
0000
0100
,
0000
0001
0000
0020
,
0000
0000
0000
1030
,
0000
0000
0000
0001
,
0000
0000
0000
0100
,
0000
0000
0000
0010
,
0000
0000
0000
0001
,
0000
0000
0000
0100
,
0000
0000
0000
0010
,
0000
0000
0000
0001
,
0000
0000
0000
1001
,
0000
0000
0000
0110
,
0000
0000
0000
0011
,
0000
0000
0000
2000
,
0000
0000
0000
0000
0000
3000
1001
0000
,
0000
0000
0000
0110
,
0000
0000
0000
0101
,
0000
0000
0000
0020
,
0000
0000
0000
0000
0000
0030
1000
0000
,
0000
0100
0000
0010
,
0000
0001
0000
0010
,
0000
0100
0000
2000
,
0000
0000
0000
3001
,
0000
0010
0000
0100
,
0000
1000
0000
0100
,
0000
0010
0000
0002
,
0000
0000
0000
1003
;

//--------------- dance-single - B. M'Rey ----------------
#NOTEDATA:;
#STEPSTYPE:dance-single;
#DESCRIPTION:B. M'Rey;
#DIFFICULTY:Easy;
#METER:7;
#RADARVALUES:0.308,0.316,0.1,0.218,0;
#NOTES:
0000
0000
0000
0000
,
0000
0000
0000
0000
,
0000
0000
0000
0000
,
0000
0000
0000
0000
,
0000
0000
0000
0000
,
0000
0000
0000
0000
,
0000
0000
0000
0200
,
0000
0000
0000
0320
,
0000
0000
0000
2030
,
0000
0000
0000
3002
,
0000
0000
0000
0000
0000
0003
0011
0000
,
1010
0101
1100
0100
,
0010
0100
1000
0000
,
0001
0010
0001
0000
,
0010
0100
0001
2000
,
0000
0000
0000
3010
,
1000
0001
0000
0010
,
1000
1000
1000
0001
,
0010
0010
0010
0020
,
0000
0000
0000
1030
,
1000
0100
0010
0010
,
0100
0001
0001
0100
,
1000
1000
2000
0000
,
0000
3010
0000
1000
,
0010
0100
0100
0001
,
0100
0100
0100
1000
,
0001
1000
1000
0200
,
0000
0000
0000
1300
,
0100
1000
0000
0010
,
0001
0100
0000
0001
,
0100
0010
0000
0220
,
0000
0000
0330
0010
,
0100
0001
0000
0100
,
1000
0001
0000
0100
,
0010
0001
0000
0220
,
0000
0000
0000
0000
0000
0330
0000
0000
,
1000
0001
1000
0010
,
0010
1000
0010
1000
,
1000
0001
1000
0020
,
0000
0000
0000
0030
,
0001
0010
0010
1000
,
0001
0100
0010
0100
,
0100
1000
0010
0200
,
0000
0000
0000
0300
,
0001
1000
1000
0010
,
0010
0010
0001
0001
,
0010
0100
0001
1000
,
0100
1000
0010
0100
,
0100
0100
1000
1000
,
0100
1000
0010
0010
,
1000
0001
0010
1010
,
0000
0101
0000
1000
,
0010
0002
0000
0013
,
1000
0101
1010
0000
,
0010
0200
0000
0310
,
0000
0001
0000
1000
,
1000
0200
0000
0301
,
0001
1000
0010
0000
,
0001
0200
0000
0301
,
0000
0001
0000
0100
,
0010
0001
0010
0001
,
0001
0001
0010
0100
,
0001
0100
0001
0002
,
0000
0000
0000
0000
0000
0000
0000
0003
,
0001
0100
0100
0010
,
0010
0001
0000
0100
,
0010
1000
0100
2000
,
0000
0000
0000
3010
,
1000
0010
0000
0100
,
0001
1000
0000
0100
,
0010
1000
0000
0220
,
0000
0000
0330
0010
,
1000
0001
0000
0010
,
0001
0001
0000
0010
,
0100
0100
0000
0220
,
0000
0000
0000
0000
0000
0330
0000
0000
,
0001
1000
0010
1000
,
0100
0010
0001
0100
,
0001
0100
0100
0020
,
0000
0000
0000
0030
,
0010
1000
0001
0001
,
0100
0100
0010
0010
,
0100
0001
0100
0200
,
0000
0000
0000
0300
;

//--------------- dance-single - B. M'Rey ----------------
#NOTEDATA:;
#STEPSTYPE:dance-single;
#DESCRIPTION:B. M'Rey;
#DIFFICULTY:Medium;
#METER:12;
#RADARVALUES:0.466,0.596,0.134,0.218,0;
#NOTES:
0000
0000
0000
0000
,
0000
0000
0000
0000
,
0000
0000
0000
0000
,
0000
0000
0000
0000
,
0000
0000
0000
0000
,
0000
0000
0000
0000
,
0000
0000
0000
2000
,
0000
0000
0000
3002
,
0000
0000
0000
0203
,
0000
0000
0000
0320
,
0000
0000
0000
0000
0000
0030
1001
0000
,
0110
0000
0011
0000
1010
0000
0100
0010
,
1000
0010
0001
0100
0010
0000
0000
0010
,
1000
0100
0001
0010
0100
0000
0000
0000
,
1000
0100
0001
0200
,
0000
0000
0000
0301
,
0100
0000
1000
0000
0000
0000
0001
0100
,
0010
1000
0100
0001
0010
0000
0100
0000
,
1000
0001
0010
0002
,
0000
0000
0000
0000
0000
0000
1003
0010
,
0100
0001
0010
1000
0100
0001
0010
0000
,
0100
1000
0001
0010
0100
0001
0010
0100
,
1000
0001
0010
0001
0200
0000
0000
0000
,
0000
0310
0000
0001
,
1000
0010
0100
0001
,
0010
1000
0100
0001
,
0010
0100
0001
2000
,
0000
0000
0000
0000
0000
0000
3010
0001
,
0010
0001
0010
0100
0000
0000
0100
1000
,
0100
1000
0100
0010
0000
0000
0010
0001
,
0010
0001
0010
0100
0000
0110
2002
0000
,
0000
0000
0000
0000
3003
0000
0010
0100
,
0010
0100
0010
0001
0000
0000
0010
0100
,
0010
0100
1000
0000
0000
0000
0010
0100
,
0010
0100
0010
0001
0000
0110
2002
0000
,
0000
0000
0000
0000
0000
3003
0000
1000
,
0100
1000
0100
0010
0100
0010
0001
0010
,
0001
0010
0100
0010
0100
1000
0100
1000
,
0100
0010
0100
0010
0001
0010
0002
0000
,
0000
0000
0000
0000
0000
0000
0003
0001
,
0010
0001
0010
0100
0010
0100
1000
0100
,
1000
0100
0010
0100
0010
0001
0010
0001
,
0010
0100
0010
0100
1000
0100
2000
0000
,
0000
0000
0000
3001
,
0010
0100
1000
0100
,
0001
0010
0001
0010
,
0100
1000
0010
0100
,
0001
0010
1000
0100
,
0001
0010
0001
0100
,
0010
1000
0100
1000
,
0001
0100
0010
1001
,
0000
1001
0000
0001
,
1000
0100
0020
0000
0000
0000
0031
0010
,
0001
0110
0110
0000
,
0010
0100
2000
0000
0000
0000
3100
0000
,
0000
0010
0000
0001
,
0010
0100
2000
0000
0000
0000
3010
0100
,
0010
0001
1000
0000
,
0010
0100
2000
0000
0000
0000
3001
0000
,
0000
0000
0100
0000
0000
0000
1000
0100
,
1000
0100
0010
0100
0001
0000
1000
0100
,
0010
0100
0001
1000
0100
0000
0100
0000
,
0001
0000
1000
0000
0100
0010
0020
0000
,
0000
0000
0000
0000
0000
0000
0000
0030
,
1000
0100
0001
0010
0100
0010
1000
0100
,
0001
0010
1000
0100
0000
0000
0001
1000
,
0100
0000
0100
0001
1000
0010
0200
0000
,
0000
0000
0000
0000
0000
0000
0310
0001
,
0010
0001
0010
0100
0000
0000
0100
1000
,
0100
1000
0100
0010
0000
0000
0010
0001
,
0010
0001
0010
0100
0000
0110
2002
0000
,
0000
0000
0000
0000
3003
0000
0010
0100
,
0010
0100
0010
0001
0000
0000
0010
0100
,
0010
0100
1000
0000
0000
0000
0010
0100
,
0010
0100
0010
0001
0000
0110
2002
0000
,
0000
0000
0000
0000
0000
3003
0000
1000
,
0100
1000
0100
0010
0100
0010
0001
0010
,
0001
0010
0100
0010
0100
1000
0100
1000
,
0100
0010
0100
0010
0001
0010
0002
0000
,
0000
0000
0000
0000
0000
0000
0003
0001
,
0010
0001
0010
0100
0010
0100
1000
0100
,
1000
0100
0010
0100
0010
0001
0010
0001
,
0010
0100
0010
0100
1000
0100
2000
0000
,
0000
0000
0000
3000
;

//--------------- dance-single - B. M'Rey ----------------
#NOTEDATA:;
#STEPSTYPE:dance-single;
#DESCRIPTION:B. M'Rey;
#DIFFICULTY:Hard;
#METER:16;
#RADARVALUES:0.778,0.877,0.067,0.075,0.678;
#NOTES:
0000
0000
0000
0000
,
0000
0000
0000
0000
,
0000
0000
0000
0000
,
0000
0000
0000
0000
,
0000
0000
0000
0000
,
0000
0000
0000
0000
,
0000
0000
0000
0000
0000
0000
0000
0000
0000
0000
0000
0000
1000
0001
0000
0100
,
0010
0000
0001
0010
0000
1000
0100
0000
0010
0000
0001
0000
0100
0010
0000
0001
,
0100
0000
0010
1000
0000
0100
0010
0000
0001
0000
1000
0000
0010
0100
0000
0001
,
1000
0000
0010
0100
0000
0010
0001
0000
0010
0000
1000
0000
0100
0010
0000
0001
,
1000
0000
0010
0100
0000
0010
0001
0000
0010
0000
1000
0000
0110
0000
0000
0000
,
0011
0000
0110
0000
1100
0000
0001
0010
,
0100
0010
0001
1000
0100
0100
0000
0001
,
0010
0000
1000
0000
0100
0000
0010
0000
0200
0000
0300
0000
0000
0000
0000
0001
,
0000
0000
0000
0010
0000
0000
0000
0100
0000
0000
0000
0000
0001
0010
0000
0100
,
1000
0000
0010
0100
0000
0010
0001
0000
0010
0100
1000
0000
0000
0000
0100
0000
,
0001
0000
0000
1000
0000
0000
0100
0000
0000
0000
0000
0000
0100
0000
1000
0000
,
0100
0001
0010
0100
1000
0000
0001
0100
,
0010
0000
1000
0000
0001
0000
0010
0000
0100
0000
0001
0000
1000
0100
0000
0010
,
0001
0000
0100
0010
0000
1000
0100
0000
0001
0010
0100
0000
0010
0000
1000
0000
,
0001
0010
0100
0010
1000
0100
0010
0001
,
0100
0010
1000
0100
0010
0001
0100
0010
,
1000
0100
0001
0010
0100
0002
0000
0000
,
0000
0000
0003
1000
0100
0001
0010
0100
,
0010
1000
0100
0001
0010
1000
0000
1000
,
0100
0001
0000
0010
0100
0010
0000
1000
,
0001
0100
0000
0010
1000
0200
0000
0000
,
0000
0000
0000
0000
0010
0000
0000
0000
0310
0000
0000
0000
1000
0001
1000
0001
,
1000
0000
0001
0000
0010
0000
0100
0000
0000
0000
0000
0000
0010
0100
0010
0100
,
0010
0000
0100
0000
1000
0000
0001
0000
0000
0000
0000
0000
0001
0010
0001
0010
,
0001
0000
0010
0000
0100
0000
1000
0000
0000
0000
0010
0000
0100
1000
0000
0001
,
0010
0000
0100
0010
0000
1000
0100
0000
0001
0010
0000
0000
0010
1000
0010
1000
,
0010
0000
0100
0000
0001
0000
1000
0000
0100
0000
0000
0000
0000
0000
0010
0100
,
0010
0100
0010
0000
0001
0000
0010
0000
1000
0000
0000
0000
0000
0000
0001
0010
,
0001
0010
0001
0000
0100
0000
0010
0000
1000
0000
0100
0000
0001
0010
0000
1000
,
0100
0000
0010
0001
0000
0100
0010
0000
1000
0100
0000
0000
0001
0000
0010
0100
,
0010
0100
0010
0000
0001
0000
1000
0100
1000
0100
1000
0000
0100
0000
0010
0001
,
0010
0001
0010
0000
0100
0000
0010
1000
0010
1000
0010
0000
0100
0000
0001
0010
,
0001
0010
0001
0000
0100
0000
0010
1000
0010
1000
0010
0000
0010
1000
0000
0100
,
0001
0000
1000
0010
0000
0001
1000
0000
0100
0001
0000
0000
0010
0000
1000
0001
,
1000
0001
1000
0000
0010
0000
0100
0001
0100
0001
0100
0000
0001
0000
1000
0010
,
1000
0010
1000
0000
0001
0000
1000
0100
1000
0100
1000
0000
0001
0000
0010
1000
,
0010
1000
0010
0000
0001
0000
1000
0100
1000
0100
1000
0000
0001
0010
0000
1000
,
0100
0000
0010
0001
0000
0100
0010
0000
1000
0100
0000
0000
0001
0000
0010
0000
,
0100
0001
0010
1000
0100
0010
1000
0100
,
0001
0010
0100
0001
0100
0010
1000
0100
,
0010
0001
0010
0100
0010
1000
0100
0010
,
0001
0010
0001
0100
0010
1000
0010
0100
,
0001
0010
0100
0010
1000
0001
0100
0010
,
0001
0100
0010
1000
0100
0010
1000
0100
,
0001
0000
0010
0000
0100
0000
0010
0000
0001
0000
0100
0000
1000
0001
1000
0001
,
1000
0000
0010
0000
0100
0001
0100
0001
0100
0000
0001
0000
0010
0000
0000
0000
,
1000
0000
0001
0020
0000
0000
0000
0000
0000
0000
0130
0000
1000
0000
0100
0000
,
1000
0011
1100
0000
,
0001
0000
1000
0200
0000
0000
0000
0000
0000
0000
0000
0000
0310
0001
0000
0010
,
0100
0000
1000
0100
0000
0001
0010
0000
0100
0010
0000
0000
0000
0000
0000
0001
,
0000
0000
1000
0200
0000
0000
0000
0000
0000
0000
0301
0000
0010
0000
0001
0000
,
0000
0110
0110
0000
,
0001
0000
0000
1000
0200
0000
0000
0000
0000
0000
0000
0300
0001
0010
0000
0100
,
1000
0000
0100
0010
0000
0001
0010
0000
1000
0100
0000
0010
0001
0000
0010
0000
,
0001
0010
0100
0010
1000
0000
0001
0010
,
0100
0010
1000
0001
0010
0000
0010
0000
,
1000
0000
0001
0000
0010
0010
0200
0000
,
0001
0000
0000
0000
1000
0000
0000
0300
,
0001
0010
1000
0100
0010
0100
0001
0010
,
1000
0100
0001
0010
0000
0000
1000
0001
,
0010
0000
0010
1000
0001
0100
0020
0000
,
0000
0000
0000
0000
0000
0000
0000
0000
0000
0000
0000
0000
1030
0001
1000
0001
,
1000
0000
0001
0000
0010
0000
0100
0000
0000
0000
0000
0000
0010
0100
0010
0100
,
0010
0000
0100
0000
1000
0000
0001
0000
0000
0000
0000
0000
0001
0010
0001
0010
,
0001
0000
0010
0000
0100
0000
1000
0000
0000
0000
0010
0000
0100
1000
0000
0001
,
0010
0000
0100
0010
0000
1000
0100
0000
0001
0010
0000
0000
0010
1000
0010
1000
,
0010
0000
0100
0000
0001
0000
1000
0000
0100
0000
0000
0000
0000
0000
0010
0100
,
0010
0100
0010
0000
0001
0000
0010
0000
1000
0000
0000
0000
0000
0000
0001
0010
,
0001
0010
0001
0000
0100
0000
0010
0000
1000
0000
0100
0000
0001
0010
0000
1000
,
0100
0000
0010
0001
0000
0100
0010
0000
1000
0100
0010
0000
0001
0000
0010
0100
,
0010
0100
0010
0000
0001
0000
1000
0100
1000
0100
1000
0000
0100
0000
0010
0001
,
0010
0001
0010
0000
0100
0000
0010
1000
0010
1000
0010
0000
0100
0000
0001
0010
,
0001
0010
0001
0000
0100
0000
0010
1000
0010
1000
0010
0000
0010
1000
0000
0100
,
0001
0000
1000
0010
0000
0001
1000
0000
0100
0001
0000
0000
0100
0000
1000
0001
,
1000
0001
1000
0000
0010
0000
0100
0001
0100
0001
0100
0000
0001
0000
1000
0010
,
1000
0010
1000
0000
0001
0000
1000
0100
1000
0100
1000
0000
0001
0000
0010
1000
,
0010
1000
0010
0000
0001
0000
1000
0100
1000
0100
1000
0000
0001
0010
0000
1000
,
0100
0000
0010
0001
0000
0100
0010
0000
1000
0100
0000
0000
0001
0000
0000
0000
;
