#VERSION:0.83;
#TITLE:Hitch Hiker;
#ARTIST:good-cool;
#GENRE:WARP HOUSE;
#CREDIT:DWI Extreme/B. M'Rey;
#MUSIC:Hitch Hiker.ogg;
#BANNER:HITCH HIKER-bn.png;
#BACKGROUND:HITCH HIKER-bg.png;
#CDTITLE:./CDTITLES/beatmania IIDX 2nd style.PNG;
#SAMPLESTART:72.250;
#SAMPLELENGTH:15.000;
#OFFSET:-0.425;
#BPMS:0.000=137.000;

//--------------- dance-single - B. M'Rey ----------------
#NOTEDATA:;
#STEPSTYPE:dance-single;
#DESCRIPTION:B. M'Rey;
#DIFFICULTY:Beginner;
#METER:2;
#RADARVALUES:0,0,0,0,0;
#NOTES:
0000
0000
0000
0000
,
0000
0000
0000
0000
,
0000
0000
0000
0000
,
1000
0000
0000
0000
,
0010
0000
0010
0000
,
0100
0000
0000
0000
,
0001
0000
0000
0000
,
1000
0000
1000
0000
,
0010
0000
0000
0000
,
0100
0000
0000
0000
,
0001
0000
0000
0000
,
1000
0000
0000
0000
,
0010
0000
0000
0000
,
0100
0000
0100
0000
,
0010
0000
0010
0000
,
0001
0000
0001
0000
,
1000
1000
1000
0000
,
0010
0000
0000
0000
,
0100
0000
0000
0000
,
0001
0000
0000
0000
,
0010
0000
0000
0000
,
1000
0000
0000
0000
,
0100
0000
0000
0000
,
0010
0000
0000
0000
,
0100
0000
0100
0000
,
0001
0000
0000
0000
,
0000
0000
0000
0000
,
0100
0000
0000
0000
,
1000
0000
0000
0000
,
0100
0000
0010
0000
,
0100
0000
0010
0000
,
0001
0000
0010
0000
,
0001
0000
0010
0000
,
0110
0000
0000
0000
,
0000
0000
0000
0000
,
1000
0000
1000
0000
,
1000
0000
0000
0000
,
0010
0000
0000
0000
,
0100
0000
0000
0000
,
0001
0000
1000
0000
,
0001
0000
1000
0000
,
0001
0000
0001
0000
,
0100
0000
0100
0000
,
0010
0000
0010
0000
,
1000
1000
1000
0000
,
0010
0000
0100
0000
,
0001
0000
0010
0000
,
0001
0000
0100
0000
,
0010
0010
0010
0000
,
0110
0000
0000
0000
;

//--------------- dance-single - DWI Extreme Original ----------------
#NOTEDATA:;
#STEPSTYPE:dance-single;
#DESCRIPTION:DWI Extreme Original;
#DIFFICULTY:Easy;
#METER:3;
#RADARVALUES:0.152,0.167,0,0.082,0;
#NOTES:
0000
0000
0000
0000
,
0000
0000
0000
0000
,
0000
0000
0000
0000
,
1000
0000
0001
0000
,
0100
0000
0010
0000
,
1000
0000
0010
0000
,
0100
0000
0001
0000
,
1000
0000
0100
0000
,
1000
0000
0010
0010
,
0200
0000
0000
0300
,
0000
0000
0010
0010
,
0002
0000
0000
0003
,
0000
0000
0100
0100
,
0020
0000
0000
0030
,
0000
1000
0000
1000
,
0001
0000
0001
0000
,
0100
0100
0100
0100
,
0020
0000
0000
0030
,
1000
0000
0001
0001
,
0200
0000
0000
0300
,
0010
1000
0001
0001
,
0200
0000
0000
0300
,
0010
0000
1000
1000
,
0002
0000
0000
0003
,
1000
0000
0010
0010
,
0100
0000
0000
0000
,
0001
0000
0000
0000
,
1000
0000
0010
0000
,
1000
0000
0010
0000
,
1000
0000
1000
0000
,
0001
0000
0001
0000
,
0010
0000
0010
0000
,
0100
0100
1000
1000
,
0000
0010
0000
0010
,
0000
1000
0000
0001
,
0000
0100
0000
0100
,
0000
0001
0000
1000
,
0010
0000
0000
0000
,
0100
0000
0000
0000
,
0001
0000
0001
0000
,
1000
1000
0100
0100
,
0010
0000
0001
0000
,
1000
0000
0100
0000
,
1000
0000
0001
0000
,
0100
0000
0010
0000
,
1000
1000
0000
0001
,
0000
0100
0000
0010
,
1000
1000
0000
0001
,
0100
0000
0010
0000
,
2000
0000
0000
3000
;

//--------------- dance-single - DWI Extreme Original ----------------
#NOTEDATA:;
#STEPSTYPE:dance-single;
#DESCRIPTION:DWI Extreme Original;
#DIFFICULTY:Medium;
#METER:8;
#RADARVALUES:0.315,0.358,0.061,0.051,0;
#NOTES:
0000
0000
0000
0000
,
0000
0000
0000
0000
,
0000
0000
0000
0000
,
0000
0000
0000
0000
,
0000
0000
0000
0000
,
1000
0001
1000
0010
,
0100
0000
0001
0000
1000
0010
1000
0000
,
0001
0001
0100
0100
,
0010
0000
1000
0000
0001
0100
0001
0100
,
0001
0000
0000
1000
0000
0010
0000
0100
,
0010
0000
1000
0010
0000
0100
0000
0001
,
1000
0000
1000
0010
0000
0100
0000
0010
,
0100
0000
0001
0010
0000
0010
0000
0100
,
0001
0000
0100
1000
0000
1000
0000
0010
,
0100
0000
0001
1000
0000
0100
0000
1000
,
1010
0100
0011
0100
,
1001
0000
0110
0000
1000
0001
1000
0001
,
2000
0010
0100
3010
,
0001
0000
0001
0000
0000
1000
0100
0000
,
1000
1000
0010
0100
,
0001
0001
1000
1000
0010
0000
0100
0000
,
0002
0010
0100
0013
,
0100
0000
0100
0000
0000
0010
1000
0000
,
0001
0001
0000
1000
1000
0000
0010
0000
,
0100
0000
0001
0000
1000
0001
1000
0000
,
0100
0010
0100
0010
,
1000
0001
1000
0001
,
0110
1000
0001
0010
,
0100
1000
0001
0010
,
0110
0000
1000
0000
0001
0000
0100
0010
,
1000
1000
0001
0100
,
0010
0000
0100
0000
0001
0000
1000
0100
,
0010
0010
0001
0001
,
0000
0100
0100
0001
0001
1000
0100
1000
,
0020
0100
0100
0130
,
0000
1000
1000
0001
0001
0100
0010
0100
,
0002
1000
1000
1003
,
0010
0000
0010
0000
0010
0000
1000
0001
,
0100
0000
0100
0000
0100
0000
0001
0010
,
0100
1000
0010
0100
,
0001
0010
0001
0010
0001
0010
0001
0010
,
0000
0001
0000
0001
1000
0000
1000
0000
,
0000
0010
0000
0010
0100
0000
0100
0000
,
0000
0001
0000
0001
0100
0000
0100
0000
,
0010
0010
1000
0001
,
0000
1000
0000
1000
0100
0000
0100
0000
,
0000
0010
0000
0010
0001
0000
0001
0000
,
0000
0100
0000
0100
0010
0000
0010
0000
,
1000
0001
1000
0010
,
2000
0000
0000
3000
;

//--------------- dance-single - DWI Extreme Original ----------------
#NOTEDATA:;
#STEPSTYPE:dance-single;
#DESCRIPTION:DWI Extreme Original;
#DIFFICULTY:Hard;
#METER:11;
#RADARVALUES:0.477,0.525,0.102,0.092,0.266;
#NOTES:
0000
0000
0000
0000
,
0000
0000
0000
0000
,
0000
0000
0000
0000
,
0000
0000
0000
0000
,
0000
0000
0000
0000
,
1000
0000
1000
0100
0000
0000
0010
0000
0000
0000
0001
0000
0000
0001
0000
0000
,
0100
0010
1000
0100
1000
0010
0100
0000
,
0001
0000
0001
0100
0000
0000
0010
0000
0000
0000
1000
0000
0000
1000
0000
0000
,
0001
0000
0100
0000
0001
0000
0000
0000
1000
0000
0100
0000
1000
0010
1000
0000
,
0001
0000
0001
1000
0010
1000
0010
1000
,
0001
0000
0001
1000
0000
1100
0000
0010
,
0001
0000
0001
0100
0010
0100
0010
0100
,
1000
0000
1000
0100
0000
0110
0000
0001
,
0100
0010
1000
0100
1000
0001
0010
0000
,
0100
0010
0001
0100
0001
1000
0100
0000
,
1001
0000
0100
0010
1001
0000
0010
0100
,
1001
0000
1001
0000
0100
0010
1000
0001
,
0200
0000
0001
0000
0010
0010
0310
0000
,
1000
0000
0001
0000
0100
0000
0001
0000
1000
0100
0000
0000
0100
0000
0000
0000
,
1000
0010
0100
0010
1000
0001
0100
0010
,
1000
0000
1000
0000
0001
0000
0001
0000
0100
0000
0010
1000
0000
0000
0001
0000
,
2000
0000
0010
0000
0001
0001
3001
0000
,
0100
0000
0010
0000
1000
0000
0001
0000
0100
0010
0000
0000
0010
0000
0000
0000
,
1000
0100
0100
0010
0001
1000
0010
0100
,
0001
0000
1000
0000
0001
0000
0000
0000
0010
0100
0010
0100
0020
0000
0000
0000
,
0031
0000
0000
0001
0000
0000
0001
0000
0000
0000
1000
0000
0000
1000
0000
0000
,
0010
0000
0000
0010
0000
0000
0010
0000
0000
0000
0100
0000
0001
0000
0100
0010
,
1000
0000
0000
1000
0000
0000
1000
0000
0000
0000
0010
0000
1000
0000
0001
0100
,
0010
0000
0000
0010
0000
0000
0010
0000
0000
0000
1000
0000
0001
0000
1000
0000
,
0010
0000
0100
0000
0001
1000
0001
1000
0000
0010
0000
0100
0000
0000
0010
1000
,
0002
0000
0000
0000
0103
0000
0000
0010
0000
1000
0000
0010
0100
0000
0001
0000
,
0010
0000
0100
0000
1000
0001
1000
0001
0000
0100
0000
0010
0000
0000
1000
0100
,
0020
0000
0031
0000
1000
0001
0100
0000
,
0010
0000
1000
0100
1000
0000
0001
0100
0001
0000
1000
0100
1000
0000
0001
0000
,
0200
0000
0010
0000
0301
1000
0100
0000
,
1000
0000
0010
0100
0010
0000
1000
0001
1000
0000
0010
0100
0010
0000
1000
0000
,
0002
0000
0100
0000
1003
0010
0100
0000
,
0001
0010
0000
0100
1000
0000
0001
0010
0000
0100
1000
0000
0010
0000
1000
0000
,
0010
0100
0000
0001
1000
0000
0010
0100
0000
0001
1000
0000
0010
0000
0100
0000
,
0101
0000
0001
0010
1100
0000
1000
0010
,
0101
0000
1000
0001
0100
1000
0100
0001
,
1000
0000
0100
0000
1000
0000
0100
0000
0010
0000
0000
0001
0000
0000
0100
0000
,
0000
0000
0010
0000
1000
0000
0010
0000
0100
0000
0000
0001
0000
0000
1000
0000
,
0000
0000
0100
0000
0010
0000
0100
0000
1000
0000
0000
0001
0000
0000
0100
0000
,
0010
0000
0100
0000
0001
0000
1000
0000
0010
0000
0000
0100
0000
0000
0001
0000
,
1000
0000
0010
0000
1000
0000
0010
0000
0100
0000
0000
0001
0000
0000
1000
0000
,
0000
0000
0100
0000
0010
0000
0100
0000
0001
0000
0000
0100
0000
0000
1000
0000
,
0000
0000
0001
0000
0100
0000
0001
0000
1000
0000
0000
0010
0000
0000
0100
0000
,
0010
0000
1000
0000
0010
0000
1000
0000
0001
0000
0000
0100
0000
0000
0010
0000
,
0220
0000
0000
0330
;
