#TITLE:Hitch Hiker 2;
#ARTIST:good-cool;
#GENRE:WARP HOUSE;
#CREDIT:B. M'Rey;
#MUSIC:HITCH HIKER 2.ogg;
#BANNER:HITCH HIKER 2-bn.png;
#BACKGROUND:HITCH HIKER 2-bg.png;
#CDTITLE:./CDTITLES/beatmania IIDX.png;
#SAMPLESTART:79.990;
#SAMPLELENGTH:12.000;
#OFFSET:-0.320;
#BPMS:0.000=137.000;

//--------------- dance-single - B. M'Rey ----------------
#NOTES:
     dance-single:
     B. M'Rey:
     Beginner:
     2:
     0,0,0,0,0:
0000
0000
0000
0000
,
0000
0000
1000
0000
,
1000
0000
0001
0000
,
0001
0000
0100
0000
,
0100
0000
0010
0010
,
1000
1000
0001
0000
,
0000
0000
0100
0000
,
0000
0000
0010
0000
,
0000
0000
1000
0000
,
0001
0000
0100
0000
,
0000
0000
0010
0000
,
0000
0000
1000
0000
,
0000
0000
0001
0000
,
0000
0000
0100
0000
,
0100
0000
0010
0000
,
0010
0000
0001
0000
,
0001
0000
1000
0000
,
1000
0000
0100
0000
,
0100
0000
0010
0000
,
0010
0000
0001
0000
,
0001
0000
1000
0000
,
1000
0000
0010
0010
,
0010
0000
0100
0100
,
0100
0000
0001
0001
,
0001
0000
1000
1000
,
1000
0000
0110
0100
,
0100
0000
0010
0010
,
0010
0000
0001
0001
,
0001
0000
1000
0001
,
1000
0001
1000
0000
,
0010
0000
0100
0000
,
0010
0010
0001
0000
,
1000
0000
0010
0010
,
0100
0100
0001
0000
,
0010
0000
0100
0100
,
0000
1000
0001
0000
,
0100
0000
0010
0000
,
0010
0000
0001
0000
,
0000
0000
0100
0000
,
0000
0000
1000
0000
,
0000
0000
0010
0000
,
0000
0000
0100
0000
,
0000
0000
0001
0000
,
0000
0000
0010
0000
,
0000
0000
1000
0000
,
0000
0000
0010
0000
,
0100
0000
0001
0000
,
1000
0000
0010
0000
,
0100
0000
0010
0000
,
0100
0000
0011
0000
,
0000
0000
0000
0000
0000
1100
0000
0000
,
0000
0000
0110
0000
,
0000
0000
0000
0000
0000
0011
0000
0000
,
0000
0000
1001
0000
,
0000
0000
0000
0000
,
0000
0000
0000
0000
,
0000
0000
0000
0000
,
0000
0000
1001
0000
;

//--------------- dance-single - DWI EXTREME ORIGINAL ----------------
#NOTES:
     dance-single:
     DWI EXTREME ORIGINAL:
     Easy:
     2:
     0.185,0.212,0.009,0.019,0:
0000
0000
0000
0000
,
0000
0000
1000
0000
,
0001
0001
0100
0000
,
0010
0000
1000
0000
,
0001
0001
0100
0000
,
0100
0000
0010
0000
,
1000
0000
0001
0000
,
0100
0000
0010
0000
,
0100
0000
0001
0000
,
1000
0000
0100
0000
,
0100
0100
0010
0000
,
0010
0010
0001
0000
,
0001
0001
1000
0000
,
0000
0000
0010
0000
,
0010
0000
0100
0000
,
0001
0000
1000
0000
,
0100
0000
0010
0000
,
0010
0010
0100
0000
,
1000
0000
0010
0000
,
0100
0000
0001
0000
,
1000
0000
0010
0000
,
0100
0100
0100
0000
,
0001
0000
1000
0010
,
1000
0000
0001
0000
,
0100
0000
0010
0100
,
0010
0000
1000
0000
,
0001
0000
1000
0100
,
0010
0000
0100
0000
,
1000
0000
0001
0010
,
0100
1000
0010
0000
,
0100
0000
0001
0000
,
1000
0000
0010
0000
,
0100
0000
0001
0001
,
0001
0001
1000
0000
,
1000
0000
0010
0100
,
0010
0100
0001
0000
,
1000
0000
0020
0000
,
0000
0030
0000
1000
,
0000
0001
0000
0100
,
0000
0010
0000
2000
,
0000
3001
0100
0000
,
0100
0100
0000
0010
,
0000
1000
0000
0001
,
0000
0001
0000
0100
,
0010
0100
0001
0000
,
1000
0010
0100
0000
,
0001
0000
1000
0000
,
0100
0000
1000
0000
,
0010
0000
0100
0000
,
0010
0000
0100
0000
,
0001
0000
0010
0000
,
0001
0000
0010
0000
,
0100
0000
1000
0100
,
0100
0010
0001
0000
,
1000
0000
0010
0000
,
0100
0000
0001
1000
,
0001
0000
0100
0010
,
0100
0000
1001
0000
;

//--------------- dance-single - DWI EXTREME ORIGINAL ----------------
#NOTES:
     dance-single:
     DWI EXTREME ORIGINAL:
     Medium:
     4:
     0.329,0.344,0.028,0.057,0.019:
0000
0000
0000
0000
,
0000
0000
1000
1000
,
0001
0000
1000
0010
0000
0100
0000
0100
,
0001
1000
0010
0010
,
0100
0001
1000
1000
,
0010
0010
0100
0010
,
0001
0100
0010
1000
,
0100
0010
0100
1000
,
0010
0100
0011
0001
,
1100
0100
0010
0001
,
0100
1000
0010
1000
,
0100
0001
0010
0001
,
0100
0010
2000
0010
,
0010
3100
0001
0100
,
0010
0010
0010
0000
1000
0000
0001
0000
,
0100
0100
0100
0000
0010
0000
1000
0000
,
0001
0100
0010
1000
,
0001
0100
0001
0000
1000
0000
1000
0000
,
0010
0010
0010
0000
0100
0000
0100
0000
,
0010
0010
0010
0000
1000
0000
1000
0000
,
0001
0001
0010
0100
,
1000
0000
0010
0100
0010
0000
1000
0000
,
0001
0001
0100
0010
,
0010
0100
0000
0100
0001
0000
0010
0000
,
1000
1000
0010
0001
,
0001
0100
0000
0100
0010
0000
1000
0000
,
0100
0100
0010
0001
,
0100
0100
0010
1000
,
0001
0100
0001
0010
,
0100
0000
1000
0000
0100
0000
0000
0000
0010
0000
0000
0000
0001
0000
0000
0001
,
0000
0000
0000
0000
0100
0000
0000
0100
0000
0000
0000
0000
0010
0000
0000
0000
,
1000
1000
0001
0100
,
0010
0100
0010
0000
1000
0000
0001
0000
,
1000
0000
0000
0000
0001
0000
0000
0000
0100
0000
0000
0000
0010
0000
0000
0010
,
0000
0000
0000
0000
0100
0000
0000
0100
0000
0000
0000
0000
0001
0000
0000
0000
,
0010
0010
0100
1000
,
0100
1000
0020
0000
,
0000
0030
0100
0010
,
1000
0001
0100
0100
,
0100
0100
0020
2000
,
3000
0130
1000
0001
,
1000
0001
0010
0100
,
1000
0001
1000
1000
,
1000
0000
1000
0000
0002
0000
0100
0200
,
0000
0300
0103
0000
0010
1000
0010
0000
,
0100
0001
0100
0000
0010
0000
1000
0000
,
0001
0001
0100
0010
,
1000
1000
0001
0100
,
0010
0010
1000
0100
,
0010
0010
0001
1000
,
0010
0001
0010
1000
,
0010
0001
1000
0100
,
0001
0100
1000
0100
,
0001
0000
0100
0000
1000
0010
0010
0000
,
0100
0000
0001
0000
1000
0100
0000
0100
,
0000
0010
0001
1000
,
0001
1000
0010
0100
,
0010
0100
1001
0000
;

//--------------- dance-single - DWI EXTREME ORIGINAL ----------------
#NOTES:
     dance-single:
     DWI EXTREME ORIGINAL:
     Hard:
     8:
     0.579,0.529,0.038,0.076,0.406:
0000
0000
0000
0000
,
0000
0000
0000
0000
1000
0010
1000
0010
,
0100
0000
0000
0001
0000
0000
1000
0000
0000
0000
0100
0000
0010
0000
0100
0000
,
0001
0000
0000
0100
0000
0000
1000
0000
0000
0000
0001
0000
0100
0000
0001
0000
,
1000
0000
0000
0010
0000
0000
0100
0000
0010
0000
1000
0000
0010
0000
1000
0000
,
0001
0000
0000
0100
0000
0000
0010
0000
1000
0000
0100
0000
1000
0100
0000
0000
,
0100
0000
0010
0000
0001
0000
0100
0000
0010
0000
1000
0000
0010
1000
0000
0000
,
1000
0000
0001
0000
0100
0000
0010
1000
0000
0000
0001
0000
1000
0001
0000
0000
,
0001
0000
0100
0000
0010
0000
0100
0000
0010
0000
1000
0000
0100
1000
0000
0000
,
1000
0000
0010
0000
0100
0000
0010
0000
0100
0000
0001
0000
0001
0010
0000
0000
,
0001
0000
0100
0000
0010
0000
0100
0000
0001
0000
1000
0000
1000
0100
0000
0000
,
1000
0000
0010
0000
0100
0000
0001
0100
0000
0000
0010
0000
0010
0100
0000
0000
,
0001
1000
0100
1000
0020
0000
1000
1000
,
1000
0000
0000
0000
0100
0000
0100
0000
0130
0000
0001
0000
1000
0100
0000
0000
,
1000
0000
1000
0010
0000
0010
0100
0000
0001
0000
1000
0000
0100
0000
0001
0000
,
0100
0000
0010
0000
0001
0000
0000
0000
1000
0000
0100
0000
1000
0010
0000
0000
,
0100
0000
0100
0001
0000
0001
0010
0000
0100
0000
1000
0000
0010
0000
0100
0000
,
0001
0100
0001
0100
0001
0000
1000
0000
0010
0000
0100
0000
0001
0100
0000
0000
,
0010
0000
0010
1000
0000
1000
0100
0000
1000
0000
0001
0000
0100
0000
1000
0000
,
0100
0000
0010
0000
1000
0000
0000
0000
0001
0000
0100
0000
0001
0010
0000
0000
,
0100
0000
0100
1000
0000
1000
0010
0000
0100
0000
0001
0000
0100
0000
0010
0000
,
1000
0000
0100
0000
1000
0001
1000
0001
1000
0000
0100
0000
1000
0010
0000
0010
,
0000
0100
0001
0000
1000
0000
0100
0000
1000
0000
0100
0000
1000
0010
0000
0010
,
0000
0000
0100
0000
0101
0000
0000
0000
0001
0000
1000
0000
0100
1000
0000
1000
,
0000
0010
0100
0000
0010
0000
1000
0000
0001
0000
1000
0000
0100
1000
0000
1000
,
0000
0000
0010
0000
0000
0000
0010
0000
1000
0000
0100
0000
1000
0010
0000
0010
,
0000
0100
0001
0000
0100
0000
0001
0000
1000
0000
0010
0000
1000
0100
0000
0100
,
0000
0000
0010
0000
0011
0000
0000
0000
0100
0000
1000
0000
0001
0100
0000
0100
,
0000
0010
1000
0000
0001
0000
0100
0000
0010
0000
1000
0000
0010
0000
1000
0000
,
0001
0100
0001
0100
0002
0000
0000
0000
1003
0000
0100
0000
0010
0000
0000
0100
,
0000
0000
1000
0000
0010
0000
0000
0100
0000
0000
0001
0000
1000
0000
0100
0000
,
1000
0000
0010
0000
0100
0001
0000
0000
2000
0000
0100
0000
0100
0000
3100
0000
,
0020
0000
0001
0000
0001
0000
0031
0000
1000
0100
1000
0100
1000
0000
0010
0100
,
0000
0001
0000
0000
1000
0000
0000
0000
0010
0000
0100
0000
0001
0000
0000
1000
,
0000
0000
0100
0000
0010
0000
0000
0001
0000
0000
0100
0000
0010
1000
0000
0000
,
0001
0000
0100
0000
0010
1000
0000
0000
0002
0000
0010
0000
0010
0000
0013
0000
,
0200
0000
0000
1000
0000
0000
1000
0000
0000
1300
0000
0000
0001
0000
0000
0000
0000
1000
0000
0000
0000
0000
0001
0000
,
0000
1000
0000
0000
0010
0100
0001
0100
,
0010
1000
0000
1000
0000
0000
0000
0000
0001
0000
0010
0000
1000
0000
0000
0000
,
1000
0010
0001
0000
1000
0100
2000
0000
,
0010
0010
3010
0000
0100
0001
0100
0001
,
0000
0010
0110
0000
0100
1000
0010
1000
,
0100
0010
0000
0010
0000
0000
0000
0000
0001
0000
1000
0000
0100
0000
0000
0000
,
1000
0001
0100
0000
0010
1000
0010
2000
,
0000
0000
3001
0000
0001
0100
0000
0000
0010
0000
0010
0000
0100
0000
0000
0001
,
0000
0001
1000
0000
0010
0000
0100
0001
1000
0000
0000
0000
1000
0000
0000
0010
,
0000
0000
0010
0000
0100
0000
0001
0000
1000
0100
0000
0000
1000
0000
0000
0010
,
0000
0100
0000
0000
0001
0000
1000
0000
0100
0000
0000
0000
0100
0000
0000
0010
,
0000
0000
0010
0000
0001
0000
1000
0000
0010
0100
0000
0000
0001
0000
0000
0100
,
0000
0000
0100
0000
0010
0000
1000
0000
0100
0000
0010
0000
0100
0000
0010
0001
,
0000
0000
0001
0000
1000
0000
0100
0000
0000
1000
0000
0000
0010
0000
0000
0100
,
0000
0001
0000
0000
1000
0000
0100
0000
1000
0000
0010
0000
1000
0000
0010
0100
,
0000
0000
0100
0000
0010
0000
1000
0000
0000
0001
0000
0000
0100
0000
0000
0010
,
0000
1000
0001
0100
0010
1000
1000
0000
,
0001
0100
0001
1000
0000
0010
0100
0010
,
0000
1000
0001
1000
0010
0000
0100
0001
,
0100
0010
0000
0000
1000
0000
0100
0000
1000
0000
0000
0000
0001
0000
0100
0000
,
0001
0010
0000
0000
0100
0000
1000
0000
0110
0000
0000
0000
0000
0000
0000
0000
;
