#TITLE:Grid;
#ARTIST:The Cynic Project;
#GENRE:TRANCE;
#CREDIT:B. M'Rey;
#MUSIC:Grid.ogg;
#BANNER:Grid-bn.png;
#BACKGROUND:grid-bg.png;
#CDTITLE:./CDTITLES/Licensed Music.PNG;
#SAMPLESTART:41.667;
#SAMPLELENGTH:12.000;
#OFFSET:-0.280;
#BPMS:0.000=143.980;
#STOPS:352.500=13.100;

//--------------- dance-single - B. M'Rey ----------------
#NOTES:
     dance-single:
     B. M'Rey:
     Beginner:
     1:
     0.076,0.088,0,0.085,0:
0000
0000
0000
0000
,
0000
0000
0000
0000
,
0000
0000
0000
0000
,
0000
0000
0000
0000
,
1000
0000
0000
0000
,
0001
0000
0000
0000
,
0010
0000
0000
0000
,
0001
0000
0000
0000
,
0200
0000
0000
0000
,
0000
0000
0000
0000
,
0302
0000
0000
0000
,
0000
0000
0000
0000
,
0023
0000
0000
0000
,
0000
0000
0000
0000
,
2030
0000
0000
0000
,
0000
0000
0000
0000
,
3001
0000
0000
0000
,
0001
0000
0000
0000
,
0010
0000
0000
0000
,
0100
0000
0000
0000
,
0010
0000
0000
0000
,
0001
0000
0000
0000
,
1000
0000
0000
0000
,
0010
0000
0000
0000
,
0010
0000
0000
0000
,
0100
0000
0000
0000
,
0001
0000
0000
0000
,
0100
0000
0000
0000
,
0001
0000
0000
0000
,
0100
0000
0000
0000
,
0010
0000
0000
0000
,
1000
0000
0000
0000
,
0001
0000
0000
0000
,
0010
0000
0000
0000
,
0200
0000
0000
0000
,
0000
0000
0000
0000
,
0301
0000
0000
0000
,
1000
0000
0000
0000
,
0010
0000
0000
0000
,
0100
0000
0000
0000
,
0001
0000
0000
0000
,
0010
0000
0000
0000
,
0100
0000
0000
0000
,
1000
0000
0000
0000
,
0001
0000
0000
0000
,
0100
0000
0000
0000
,
0010
0000
0000
0000
,
0001
0000
0000
0000
,
2000
0000
0000
0000
,
0000
0000
0000
0000
,
3002
0000
0000
0000
,
0000
0000
0000
0000
,
0203
0000
0000
0000
,
0000
0000
0000
0000
,
0320
0000
0000
0000
,
0000
0000
0000
0000
,
0130
0000
0000
0000
,
0001
0000
0000
0000
,
1000
0000
0000
0000
,
0010
0000
0000
0000
,
0100
0000
0000
0000
,
0001
0000
0000
0000
,
0010
0000
0000
0000
,
0100
0000
0000
0000
,
0200
0000
0000
0000
,
0000
0000
0000
0000
,
0000
0000
0000
0000
,
0000
0000
0000
0000
,
0000
0000
0000
0000
,
0300
0000
0000
0000
;

//--------------- dance-single - B. M'Rey ----------------
#NOTES:
     dance-single:
     B. M'Rey:
     Easy:
     1:
     0.149,0.206,0,0.239,0:
0000
0000
0000
0000
,
0000
0000
0000
0000
,
0000
0000
0000
0000
,
0000
0000
0000
0000
,
0001
0000
0000
0000
,
0010
0000
0000
0000
,
0100
0000
0000
0000
,
1000
0000
0000
0000
,
0200
0000
0000
0000
,
0302
0000
0000
0000
,
0023
0000
0000
0000
,
2030
0000
0000
0000
,
3002
0000
0000
0000
,
0023
0000
0000
0000
,
0230
0000
0000
0000
,
0302
0000
0000
0000
,
1003
0000
1000
0000
,
0001
0000
0001
0000
,
0010
0000
0010
0000
,
0100
0000
0100
0000
,
0010
0000
0010
0000
,
1000
0000
1000
0000
,
0001
0000
0001
0000
,
0010
0000
0010
0000
,
0200
0000
0000
0000
,
0320
0000
0000
0000
,
0032
0000
0000
0000
,
2003
0000
0000
0000
,
3002
0000
0000
0000
,
0023
0000
0000
0000
,
0230
0000
0000
0000
,
2300
0000
0000
0000
,
3001
0000
0010
0000
,
0100
0000
0010
0000
,
2000
0000
0000
0000
,
3020
0000
0000
0000
,
0130
0000
0001
0000
,
0010
0000
0000
0000
,
1000
0000
0010
0000
,
0100
0000
0000
0000
,
0001
0000
1000
0000
,
0010
0000
0000
0000
,
0001
0000
0010
0000
,
0001
0000
0000
0000
,
1000
0000
0100
0000
,
1000
0000
0000
0000
,
0001
0000
0100
0000
,
0010
0000
0000
0000
,
2000
0000
0000
0000
,
3200
0000
0000
0000
,
0320
0000
0000
0000
,
0032
0000
0000
0000
,
0023
0000
0000
0000
,
0230
0000
0000
0000
,
2300
0000
0000
0000
,
3002
0000
0000
0000
,
0103
1000
0100
0000
,
0001
0010
0001
0000
,
0010
0100
0010
0000
,
1000
0100
1000
0000
,
0001
1000
0001
0000
,
0010
1000
0100
0000
,
0001
0010
0001
0000
,
0010
1000
0100
0000
,
0002
0000
0000
0000
,
0000
0000
0000
0000
,
0023
0000
0000
0000
,
0000
0000
0000
0000
,
0000
0000
0000
0000
,
0030
0000
0000
0000
;

//--------------- dance-single - B. M'Rey ----------------
#NOTES:
     dance-single:
     B. M'Rey:
     Medium:
     3:
     0.287,0.383,0.017,0.359,0:
0000
0000
0000
0000
,
0000
0000
0000
0000
,
0000
0000
0000
0000
,
0000
0000
0000
0000
,
1000
0010
0100
0001
,
0010
0100
1000
0010
,
0100
0010
0001
0100
,
0010
0001
0010
1000
,
0200
0000
0000
0000
,
0302
0000
0000
0000
,
0023
0000
0000
0000
,
2030
0000
0000
0000
,
3200
0000
0000
0000
,
0302
0000
0000
0000
,
0023
0000
0000
0000
,
0230
0000
0000
0000
,
1300
0001
0010
0001
,
0100
0010
1000
0100
,
0010
1000
0010
0001
,
0100
0010
1000
0100
,
0010
1000
0001
0100
,
0010
0001
1000
0010
,
0100
0010
0001
0010
,
0100
0001
0010
0100
,
2000
0000
3200
0320
,
0032
0000
0023
0230
,
2300
0000
3002
0023
,
0230
0000
0000
0000
,
0320
0000
0032
2003
,
3020
0000
0230
0320
,
2030
0000
3020
0230
,
0302
0000
0023
0230
,
1300
0001
0010
0001
,
0100
0010
1000
0010
,
0002
1000
1000
1000
,
1000
1000
1000
1000
,
2003
0000
0000
3001
,
0010
0100
1000
0001
,
0200
0000
0000
0301
,
1000
0200
0000
0300
,
1001
0010
0100
0001
,
0010
1000
0010
0100
,
0001
0010
0001
0100
,
1000
0010
0100
0010
,
0001
0010
1000
0010
,
0100
0001
0010
0001
,
0100
0010
1000
0100
,
0010
0001
0100
0010
,
2000
0000
0000
0000
,
3001
0000
0000
0000
0220
0000
0000
0330
,
0001
0010
0100
1000
,
0010
0100
0001
0010
,
0002
0000
0000
1003
,
0010
0000
0100
0000
,
0001
0000
0000
0100
,
1000
0010
0000
0000
,
1000
1000
1000
1000
,
0100
0100
0100
0100
,
0010
0010
0010
0010
,
0001
0001
0001
0001
,
0010
0010
0010
0010
,
0100
0100
0100
0100
,
1000
1000
1000
1000
,
0001
0001
0001
0001
,
0200
0000
0000
0000
,
0320
0000
0000
0000
,
0032
0000
0000
0000
,
0203
0000
0000
0000
,
0000
0000
0000
0000
,
0300
0000
0000
0000
;

//--------------- dance-single - B. M'Rey ----------------
#NOTES:
     dance-single:
     B. M'Rey:
     Hard:
     7:
     0.469,0.568,0,0.479,0.051:
0000
0000
0000
0000
,
0000
0000
0000
0000
,
0000
0000
0000
0000
,
0000
0000
0000
0000
,
0001
0010
1000
0000
0010
0001
0100
0000
,
0010
1000
0100
0000
0001
0010
0100
0000
,
0010
1000
0100
0000
0001
0010
0100
0000
,
0001
0010
0100
0000
0010
0100
0001
0000
,
1000
0001
0010
0100
2000
0000
3200
0000
,
0301
0010
0001
0100
2000
0000
3010
0001
,
0200
0000
2300
3200
,
0302
0000
0023
0000
,
1030
0000
0001
0000
0010
0100
0000
0010
0000
0100
0010
0000
0001
0000
1000
0000
,
0010
0000
0100
0000
1000
0001
0000
1000
0000
0001
1000
0000
0100
0000
0010
0000
,
0001
0000
0010
0000
0100
1000
0000
0100
0000
1000
0100
0000
0001
0000
0010
0000
,
0100
0000
1000
0000
0001
0010
0000
0001
0000
0010
0001
0000
0010
0000
0100
0000
,
1000
0001
0010
0001
0100
0010
1000
0000
,
0100
0001
0010
1000
0010
0100
0010
0000
,
0001
0010
0001
0100
0010
1000
0100
0000
,
0001
0010
0001
0100
0010
1000
0100
0000
,
0001
0010
0001
0100
0010
1000
0100
0000
,
0001
0010
0001
0100
0010
1000
0100
0000
,
0001
0010
0001
0100
0010
1000
0010
0000
,
0100
0001
0010
0100
1000
0010
0100
0000
,
2000
0000
3002
0023
,
0230
0000
0320
0032
,
0203
0000
0000
0000
0302
0000
1003
0100
,
0020
0000
0000
0000
,
0032
0000
2003
3020
,
0230
0000
0302
0023
,
0230
0000
2300
3020
,
0032
0000
1000
1000
,
1003
0001
0010
0000
0010
1000
0100
0000
,
0001
0010
0001
0000
0100
0010
0001
0000
,
2000
3200
0302
0023
,
0032
0203
0320
2030
,
3002
0000
0000
0000
0000
0000
0013
1000
,
0200
0000
0000
0320
0000
0000
0032
0000
,
0023
0000
0000
0000
0000
0000
1030
0001
,
0010
0100
2000
0000
0000
0000
0000
0000
,
3001
0010
1000
0100
,
0001
0010
0100
0001
1000
0010
0100
0001
,
0010
0100
0001
0010
,
1000
0010
0100
0001
0010
1000
0010
0100
,
0001
1000
0010
0100
,
0001
0010
0001
1000
0010
0100
0010
0001
,
1000
0010
0100
0001
,
0010
1000
0100
0010
0001
0100
0010
1000
,
0200
0000
0000
0000
,
0320
0000
0032
0000
,
1003
1000
0100
0100
,
0010
0010
0001
0001
,
0020
0000
0000
0000
0000
0000
1030
0001
,
0020
0000
0000
0230
0000
0000
2300
0000
,
3002
0000
0000
0000
0000
0000
0103
0010
,
2000
0000
0000
0000
,
3001
0010
0001
0010
0001
0010
0001
0010
,
0100
0010
0100
0010
0100
0010
0100
0010
,
0100
1000
0100
1000
0100
1000
0100
1000
,
0100
0010
0100
0010
0100
0010
0100
0010
,
0100
0001
0100
0001
0100
0001
0100
0001
,
0100
0010
0100
0010
0100
0010
0100
0010
,
1000
0010
1000
0010
1000
0010
1000
0010
,
1000
0100
1000
0100
1000
0100
1000
0100
,
2000
0000
0000
0000
,
3020
0000
0000
0000
,
0032
0000
0000
0000
,
2003
0000
0000
0000
,
3020
0000
0000
0000
,
0200
0000
0000
0000
,
0330
0000
0000
0000
;
