#VERSION:0.83;
#TITLE:檄!帝国華撃団;
#ARTIST:横山千紗;
#TITLETRANSLIT:Geki! Teikoku Kagekidan;
#ARTISTTRANSLIT:Chisa Yokoyama;
#GENRE:TV&ANIME;
#CREDIT:B. M'Rey;
#MUSIC:Geki! Teikoku Kagekidan.ogg;
#BANNER:Geki! Teikoku Kagekidan.png;
#BACKGROUND:Geki! Teikoku Kagekidan-bg.png;
#CDTITLE:./CDTITLES/Arcade Exclusive.PNG;
#SAMPLESTART:50.222;
#SAMPLELENGTH:15.000;
#OFFSET:-0.109;
#BPMS:0.000=142.457,189.000=71.229,205.000=142.457;

//--------------- dance-single - B. M'Rey ----------------
#NOTEDATA:;
#STEPSTYPE:dance-single;
#DESCRIPTION:B. M'Rey;
#DIFFICULTY:Beginner;
#METER:2;
#RADARVALUES:0.106883,0.191617,0.008407,0.075659,0,89,88,1,9,0,0,0.106883,0.191617,0.008407,0.075659,0,89,88,1,9,0,0;
#NOTES:
0000
0000
0000
0000
,
0000
0000
0000
0000
,
0000
0000
0000
0000
,
0000
0000
0000
0000
,
0000
0000
0000
0000
,
0000
1000
0000
0000
,
0000
0010
0000
0000
,
0000
0100
0000
0000
,
0000
0001
0000
0000
,
0000
1000
0000
0000
,
0000
0001
0000
0000
,
0000
0100
0000
0000
,
0000
0010
0000
0000
,
0000
1000
0000
0010
,
0000
0100
0000
0001
,
0000
1000
0000
0000
,
0000
0100
0000
0000
,
0000
0010
0000
0001
,
0000
2000
0000
3000
,
0000
0010
0000
0100
,
0000
0020
0000
0030
,
0000
1000
1000
1000
,
0000
0001
0001
0001
,
0000
0100
0000
0010
,
0000
1000
0000
0000
,
0000
0020
0030
0000
,
0000
0200
0000
0300
,
0000
0001
0000
0010
,
0000
0200
0000
0000
,
0000
0300
0000
1000
,
0000
0001
0000
0100
,
0000
0010
0000
1000
,
0000
0100
0000
0010
,
0000
1000
0000
0001
,
0000
0010
0000
0001
,
0000
0200
0000
0300
,
0000
0010
0000
0000
,
0000
1000
0000
0001
,
0000
0010
0000
0001
,
0000
0100
0000
0010
,
0000
1000
0000
0100
,
0000
1000
0000
0010
,
0000
0100
0000
0000
,
0000
0001
0000
0000
,
0000
1000
0000
0010
,
0000
0200
0000
0000
,
0000
0000
0300
0000
,
0000
0002
0000
0000
,
0000
0000
0000
0000
,
0000
2003
0000
0000
,
0000
0000
0000
0000
,
0000
3010
0000
0010
,
0000
0010
0000
0100
,
0000
0100
0000
0100
,
0000
0001
0000
0001
,
0000
1000
0000
1000
,
0000
0010
0000
0010
,
0000
0100
0000
0100
,
0000
0010
0000
0010
,
0000
0001
0000
0000
,
0000
1000
0000
0000
,
0000
0100
0000
0000
,
0000
0010
0000
0000
,
0000
0001
0000
0000
,
0000
1000
0000
0001
,
0000
1001
0000
0000
0000
0000
0000
0000
;

//--------------- dance-single - B. M'Rey ----------------
#NOTEDATA:;
#STEPSTYPE:dance-single;
#DESCRIPTION:B. M'Rey;
#DIFFICULTY:Easy;
#METER:3;
#RADARVALUES:0.123696,0.191617,0.050439,0.084065,0,103,97,6,10,0,0,0.123696,0.191617,0.050439,0.084065,0,103,97,6,10,0,0;
#NOTES:
0000
0000
0000
0000
,
0000
0000
0000
0000
,
0000
0000
0000
0000
,
0000
0000
0000
0000
,
0000
0000
0000
0000
,
0000
1000
0000
0000
,
0000
0001
0000
0000
,
0000
0100
0000
0000
,
0000
0010
0000
0000
,
0000
1001
0000
0000
,
0000
1001
0000
0000
,
0000
1000
0000
0001
,
0000
0100
0000
0000
,
0000
0001
0000
0010
,
0000
0100
0000
0001
,
0000
1000
0000
0100
,
0000
0001
0000
0000
,
0000
0100
0000
0001
,
0000
1000
0000
0100
,
0000
1000
0000
0001
,
0000
0010
0000
0000
,
0000
1000
0000
0001
,
0000
0010
0000
0001
,
0000
0100
0000
0010
,
0000
1000
0000
0000
,
0000
0010
0000
0001
,
0000
0010
0000
0100
,
0000
0010
0000
1000
,
0000
0200
0000
0000
,
0000
0300
0000
0001
,
0000
1001
0000
1000
,
0000
1001
0000
0010
,
0000
0100
0000
0001
,
0000
0010
0000
1000
,
0000
0100
0000
0001
,
0000
0002
0000
0003
,
0000
0010
0000
0100
,
0000
0100
0000
1000
,
0000
1001
0000
0001
,
0000
1001
0000
0010
,
0000
0100
0000
0001
,
0000
1000
0000
0010
,
0000
0100
0000
0001
,
0000
0020
0000
0000
,
0030
0001
0000
1000
,
0000
0020
0000
0000
,
0000
0000
0000
0030
,
0000
2000
0000
0000
,
0000
3200
0000
0000
,
0000
0302
0000
0000
,
0000
0023
0000
0000
,
0000
1030
0000
0010
,
0000
0100
0000
0001
,
0000
0010
0000
0001
,
0000
1000
0000
1000
,
0000
0001
0000
0010
,
0000
0100
0000
0001
,
0000
1000
0000
0010
,
0000
0100
0000
0001
,
0000
1000
0000
0000
,
0000
0010
0000
0000
,
0000
0000
1000
0000
0000
0001
0000
0000
,
1000
0002
0000
0000
,
0000
0003
0020
0000
0000
0000
0000
0000
,
0000
0130
0000
1000
,
0000
1000
0000
0000
0000
0000
0000
0000
;

//--------------- dance-single - B. M'Rey ----------------
#NOTEDATA:;
#STEPSTYPE:dance-single;
#DESCRIPTION:B. M'Rey;
#DIFFICULTY:Medium;
#METER:8;
#RADARVALUES:0.329056,0.383233,0.134505,0.067252,0,274,258,16,8,0,0,0.329056,0.383233,0.134505,0.067252,0,274,258,16,8,0,0;
#NOTES:
0000
0000
0000
0000
,
0000
0000
0000
0000
,
0000
0000
0000
0000
,
0000
0000
0000
0000
,
0010
0100
0001
1000
,
0010
0100
0001
1000
,
0100
0010
0001
0100
,
0000
1000
0001
0010
,
0100
1000
0001
0010
,
0000
0000
1000
0001
1000
0000
0100
0000
,
0000
0000
0010
0001
0010
0000
1000
0000
,
0000
0100
0001
1000
,
0001
0010
0001
1000
,
0000
0010
0100
0001
,
0100
0000
0010
1000
0100
0000
0001
0000
,
0010
0000
0100
0000
1000
0100
0001
0000
,
0010
0001
0100
0000
1000
0000
0001
0000
,
1000
0000
0100
0000
0010
0001
0100
0000
,
1000
0002
0000
0103
,
0000
1000
0001
0010
0000
1000
0100
0000
,
0010
0002
0010
0013
,
0000
0000
0010
0000
1000
1000
0010
0000
,
0100
0000
0010
0000
1000
1000
0001
0000
,
0010
0100
1000
0010
,
1000
0010
0000
0100
,
0000
0100
0000
0001
,
0010
0200
0000
1300
,
0010
0000
0001
0010
1000
0000
0100
0010
,
1000
2002
0000
0000
,
0000
3003
0000
0100
,
0010
0001
1000
0001
,
0010
0001
0100
0000
1000
0000
0010
0000
,
0100
0000
0001
0000
0010
0000
0001
0010
,
1000
0100
0000
1001
,
0110
0011
0010
0100
,
1000
0001
0010
0000
0100
0000
0001
0000
,
1000
0100
0010
0000
0100
0000
0001
1000
,
0010
0000
0100
0001
1000
0000
1100
0000
,
1001
0011
0010
0100
,
0010
0001
0100
0000
0010
0000
0001
0000
,
0100
0000
0010
0000
1000
0010
0001
0000
,
0100
1000
0010
0000
1000
0000
1100
0000
,
1010
0110
0100
0010
,
0100
1000
0001
0000
0010
0000
0100
0000
,
1000
0100
0010
0000
0100
0000
0001
0010
,
0100
0000
0010
1000
0100
0000
0001
0000
,
0010
0100
0010
0101
,
1010
0001
1000
0001
,
1000
0001
0010
0100
,
0010
0001
0010
0001
,
1000
0001
1000
0100
,
1000
0010
0100
0010
,
1000
0010
0100
0001
,
1000
0000
0100
0010
1000
0000
0100
0000
,
1000
0010
0000
0000
0100
0001
0000
0000
,
0100
0001
1000
0000
0100
0000
0010
0100
,
1000
0000
0001
0000
0010
0000
0001
0010
,
0100
0000
0001
1000
0100
0000
0010
0001
,
0100
0010
1000
0100
,
1000
0000
0100
0010
1000
0000
0001
1000
,
0100
0000
0001
1000
0010
0000
0100
0001
,
0010
0000
1001
0000
0000
0101
0000
0000
,
0110
2002
0000
0000
,
3003
0010
0200
0000
,
0000
0000
0301
1000
0000
0001
1000
0000
,
0001
1000
0000
0000
0000
0000
0000
0000
;

//--------------- dance-single - B. M'Rey ----------------
#NOTEDATA:;
#STEPSTYPE:dance-single;
#DESCRIPTION:B. M'Rey;
#DIFFICULTY:Hard;
#METER:12;
#RADARVALUES:0.487579,0.629597,0.353075,0.109285,0.092472,406,364,42,13,0,1,0.487579,0.629597,0.353075,0.109285,0.092472,406,364,42,13,0,1;
#NOTES:
0000
0000
0000
0000
,
0000
0000
0000
0000
,
0000
0000
0000
0000
,
0000
0000
0000
0000
,
0100
1000
0010
0100
,
0010
0000
0110
0000
0100
0010
0001
0000
,
0100
1000
0100
0010
0100
0010
0001
0000
,
0100
0000
1010
0000
0001
0010
0001
0000
,
0100
0010
0001
0100
0010
1000
0010
0000
,
0000
0000
0000
0000
1001
0000
1100
0000
1010
0000
0000
0000
0010
0100
0010
0100
,
0010
0000
0000
0000
1001
0000
0011
0000
0101
0000
0000
0000
0100
0001
0100
0001
,
0100
0000
0010
1000
0001
0000
0010
0100
,
0010
1010
0110
0110
,
0000
0000
0001
0000
0010
1000
0001
0000
,
0100
0000
0100
1000
0010
1000
0100
0000
,
0100
0000
0000
0000
0010
0000
0100
0001
0100
0000
1000
0000
0001
0100
0001
0000
,
0001
0010
0100
0000
0100
0000
0100
0000
,
0001
0010
0001
0000
0010
0100
0010
1000
,
0001
0010
0200
0000
0000
0310
0001
0000
,
0010
0000
0100
0010
0100
0000
1000
0000
0010
0000
0100
0000
0000
0000
0010
0000
,
0001
0100
1000
0001
,
1000
0000
0010
0000
0100
0000
1000
0010
1000
0000
1000
0100
1000
0000
0010
0000
,
0001
0000
0000
0000
0001
0100
0001
0000
0010
1000
0010
0000
0100
0000
0000
0000
,
0001
0000
0000
0000
0001
0000
0010
0100
0000
0100
1000
0000
0010
0000
0000
0000
,
0001
0010
0001
0000
0001
0000
0100
0000
,
0100
0010
0002
0000
0013
1000
0010
1000
,
0010
1000
0002
0000
0003
0100
0002
0000
,
0103
1000
0010
0100
0010
1000
0001
1000
,
0101
0220
0000
0000
,
0000
0000
0000
0330
0000
0000
0000
0000
0000
0000
0000
0000
1001
0000
0000
0000
,
1001
1001
0010
0100
,
0010
0100
0010
0000
0001
0000
0001
1000
,
0010
0100
0010
0000
0001
1000
0010
0100
,
0010
1000
0100
0000
1000
0000
0110
0000
,
0110
0000
0011
0000
0100
0000
0001
0100
,
0010
0100
0002
0000
0010
0000
0013
0000
,
0001
0010
0100
0000
0001
1000
0010
1000
,
0010
0100
0002
0000
0010
0000
1103
0000
,
0110
0000
0101
0000
0010
0000
0010
1000
,
0100
1000
0010
0000
0001
0000
0100
0010
,
0100
0010
0002
0000
0013
1000
0010
0100
,
0001
0010
0001
0000
0100
0000
0110
0000
,
1001
0000
0110
0000
0100
0000
0100
1000
,
0010
0100
0002
0000
0100
0000
0103
0000
,
0100
0000
0000
0010
0000
0000
0002
0000
0000
0000
0000
0000
0013
0000
0000
1000
0000
0000
0001
0000
0000
0000
0100
0000
,
0000
1000
0000
0200
0000
0000
0010
0000
0000
0010
0000
0000
,
0001
0000
0301
0000
0010
0100
1010
0000
,
1010
0001
0100
0010
,
0100
0010
0100
0001
,
1000
0001
1000
0010
,
0100
0000
0001
0000
0010
0000
0100
0001
,
0010
1000
0001
1000
0001
1000
0100
1000
,
0001
0100
0010
0100
0010
0200
0000
1300
,
0010
1000
0100
1000
0100
0010
0001
0010
,
0001
0110
0000
1000
0001
1100
0000
0010
,
0100
0110
0000
1000
0001
0010
0001
0010
,
0001
0000
0010
1000
0010
1000
0001
0100
,
0001
0100
0010
0100
0010
1000
0010
0100
,
0001
0100
0001
0100
0010
1000
0010
1000
,
0100
1000
0100
0010
0100
0010
0001
0010
,
0100
1000
0010
1000
0001
1000
0001
0010
,
0001
0000
0010
0000
1001
0000
0000
0110
0000
0000
0101
0000
0000
1010
0000
0000
,
0110
0000
0000
0101
0000
0000
0000
0010
1000
0000
0000
0100
0001
0000
0000
0010
,
1000
0000
0001
0100
0010
0000
0001
0000
,
0001
0000
1001
1001
0000
0110
0110
0000
,
0011
1100
0000
0000
0000
0000
0000
0000
;

//--------------- dance-double - B. M'Rey ----------------
#NOTEDATA:;
#STEPSTYPE:dance-double;
#DESCRIPTION:B. M'Rey;
#DIFFICULTY:Easy;
#METER:4;
#RADARVALUES:0.182542,0.246364,0.084065,0.159724,0.01261,152,142,10,19,0,0,0.182542,0.246364,0.084065,0.159724,0.01261,152,142,10,19,0,0;
#NOTES:
00000000
00000000
00000000
00000000
,
00000000
00000000
00000000
00000000
,
00000000
00000000
00000000
00000000
,
00000000
00000000
00000000
00000000
,
00000000
00000000
00000000
00000000
,
00000000
00010000
00000000
10000000
,
00000000
01000000
10000000
00010000
,
00000000
00010000
00000000
00001000
,
00000000
01000000
00001000
00100000
,
00000000
00100100
00000000
00000000
,
00000000
00010010
00000000
00000000
,
00000000
00000100
00001000
00000001
,
00001000
00000100
00000000
00000000
,
00000000
00000010
00000100
00001000
,
00000000
00000010
00000100
00000010
,
00000000
00010000
00000000
00000100
,
00000000
00010000
00000000
00000000
,
00000000
00100000
00000000
01000000
,
00001000
00000000
00000000
00000000
00000000
00000000
00000000
00000000
00000000
00000000
00000000
00000000
00000000
00000000
00000000
00000000
00020000
00000000
00000000
00000000
00000000
00000000
00000000
00000000
00000000
00000000
00000000
00000000
00000000
00000000
00000000
00000000
00000000
00000000
00000000
00000000
00000000
00000000
00000000
00000000
00000000
00000000
00000000
00000000
00000000
00000000
00000000
00000000
00001000
00000000
00000000
00000000
00000000
00000000
00000000
00030000
00000000
00000000
00000000
00000000
00000000
00000000
00000000
00000000
,
00000000
10000000
00000000
01000000
,
00000000
00100000
00000000
00000000
,
00000000
01000000
00010000
00100000
,
00000000
00100000
00000100
00010000
,
00000000
00000100
00000000
00000010
,
00000000
00000000
00000000
00000000
00000000
00000000
00000000
00000000
00000000
00000000
00000000
00000000
00000000
00000000
00000000
00000000
00000000
00000000
00000000
00000000
00000000
00000000
00000000
00000000
00000000
00000000
00000000
00000000
00000000
00000000
00000000
00000000
00000000
00000000
00000000
00000000
00000000
00000000
00000000
00000000
00000000
00000000
00000000
00000000
00000000
00000000
00000000
00000000
00000200
00000000
00000000
00000000
00000000
00000000
00000000
00000000
00000000
00000000
00000000
00000000
00000000
00000000
00000000
00000000
00000000
00000000
00000000
00000000
00000000
00000000
00000000
00000000
00000000
00000000
00000000
00000000
00000000
00000000
00000000
00000000
00000000
00000000
00000000
00000000
00000000
00000000
00000000
00000000
00000000
00000000
00000000
00000000
00000000
00000000
00000000
00000000
00000000
00000000
00000000
00000000
00000000
00000000
00000000
00000000
00000000
00000000
00000000
00000000
00000000
00000000
00000000
00000000
00000000
00000000
00000000
00000000
00000000
00000000
00000000
00000300
00000000
00000000
00000000
00000000
00000000
00000000
00000000
00000000
00000000
00000000
00000000
00000000
00000000
00000000
00000000
00000000
00000000
00000000
00000000
00000000
00000000
00000000
00000000
00000000
00000000
00000000
00000000
00000000
00000000
00000000
00000000
00000000
00000000
00000000
00000000
00000000
00000000
00000000
00000000
00000000
00000000
00000000
00000000
00000000
00000000
00000000
00000000
00000000
00000000
00000000
00000000
00000000
00000000
00000000
00000000
00000000
00000000
00000000
00000000
00000000
00000000
00000000
00000000
00000000
00000000
00000000
00000000
00000000
00000000
00000000
00000000
00000000
,
00000000
00000100
00000000
00000010
,
00100000
00010000
00000000
00100000
,
00000000
00100000
01000000
00010000
,
01000000
20000000
00000000
00000000
,
00000000
30000000
00000000
00010000
,
00010000
01001000
00000000
00010000
,
00100000
00100100
00000000
00000100
,
00000100
00001000
00000000
00010000
,
00000100
00000000
00000000
00000000
00000000
00000000
00000000
00000000
00000000
00000000
00000000
00000000
00000000
00000000
00000000
00000000
00000000
00000000
00000000
00000000
00000000
00000000
00000000
00000000
00000000
00000000
00000000
00000000
00000000
00000000
00000000
00000000
00000000
00000000
00000000
00000000
00000000
00000000
00000000
00000000
00000000
00000000
00000000
00000000
00000000
00000000
00000000
00000000
00000020
00000000
00000000
00000000
00000000
00000000
00000000
00000000
00000000
00000000
00000000
00000000
00000000
00000030
00000000
00000000
00000000
00000000
00000000
00000000
00000000
00000000
00000000
00000000
00000000
00000000
00000000
00000000
00000000
00000000
00000000
00000000
00000000
00000000
00000000
00000000
00000000
00000000
00000000
00000000
00000000
00000000
00000000
00000000
00000000
00000000
00000000
00000000
00000000
00000000
00000000
00000000
00000000
00000000
00000000
00000000
00000000
00000000
00000000
00000000
00000000
00000000
00000000
00000000
00000000
00000000
00000000
00000000
00000000
00000000
00000000
00000000
00000000
00000000
00000000
00000000
00000000
00000000
00000000
00000000
00000000
00000000
00000000
00000000
00000000
00000000
00000000
00000000
00000000
00000000
00000000
00000000
00000000
00000000
00000000
00000000
00001000
00000000
00000000
00000000
00000000
00000000
00000000
00000000
00000000
00000000
00000000
00000000
00000000
00000000
00000000
00000000
00000000
00000000
00000000
00000000
00000000
00000000
00000000
00000000
00000000
00000000
00000000
00000000
00000000
00000000
00000000
00000000
00000000
00000000
00000000
00000000
00000000
00000000
00000000
00000000
00000000
00000000
00000000
00000000
00000000
00000000
00000000
00000000
,
00000010
00010010
00000000
00000100
,
00100000
00011000
00000000
00000000
,
00001000
00010000
00000000
00100000
,
10000000
01000000
00000000
10000000
,
00010000
00001000
00000000
01000000
,
00000100
00001100
00000000
00100000
,
00000010
00001000
00000000
00000100
,
00000100
00001000
00000000
00000001
,
00000100
00010010
00000000
00000100
,
00100000
00100100
00000000
00000000
,
00001000
00010000
00000000
00100000
,
10000000
01000000
00000000
00000000
,
00000000
00010000
00000000
00100000
,
00100000
00000200
00000000
00200300
,
00000000
00320000
00000000
00032000
,
00000000
00003100
00000000
00000020
,
00000000
00000230
00000000
00001300
,
00000000
00000200
00000300
00010000
,
00000100
00200000
00300000
00010000
,
01000000
00200000
00300000
00010000
,
01000000
20000000
30000000
00010000
,
00000000
00002000
00003100
00010000
,
00000000
00001000
00010000
00000020
,
00000030
00000100
00001000
00010000
,
00000000
00000002
00000003
00002000
,
00003000
00001000
00010000
00001000
,
01000000
00001000
01000000
00001000
,
10000000
00020000
00000000
00000000
,
00000000
10030000
00000000
00000000
,
00000000
00010000
00000000
00000000
,
00000000
00000000
00001000
00000000
00000000
00100000
00000000
00000000
,
00000000
00101000
00000000
00000000
00000000
00000000
00000000
00000000
;

//--------------- dance-double - B. M'Rey ----------------
#NOTEDATA:;
#STEPSTYPE:dance-double;
#DESCRIPTION:B. M'Rey;
#DIFFICULTY:Medium;
#METER:8;
#RADARVALUES:0.273813,0.437981,0.02522,0.19335,0.046236,228,225,3,23,0,0,0.273813,0.437981,0.02522,0.19335,0.046236,228,225,3,23,0,0;
#NOTES:
00000000
00000000
00000000
00000000
,
00000000
00000000
00000000
00000000
,
00000000
00000000
00000000
00000000
,
00000000
00000000
00000000
00000000
,
00001000
00000100
00000001
00000010
,
00001000
00010000
10000000
00010000
,
01000000
00000000
00100000
00010000
00000000
10000000
00010000
00000000
,
00000000
00000100
00001000
00000000
00000001
00000000
00000010
00000000
,
00000100
00000000
00000001
00000010
00001000
00000001
00000100
00000000
,
00001000
00000000
00100000
00100000
00100000
00000000
00000000
00000000
,
00000000
00000000
01000000
01000000
01000000
00000000
00000000
00000000
,
00000000
10000000
00010000
00001000
,
00100000
00010000
00001000
00000001
,
00000000
00000000
00001000
00000000
00000001
00000010
00001000
00000000
,
00000000
00000100
00001000
00000001
,
00000000
00000010
00000100
00000010
,
00000001
00000010
00000001
00000000
00000000
00000000
00000000
00000000
,
00000000
00000000
00000200
00000000
00000000
00000300
00001000
00000000
,
00010000
00000000
20000000
00000000
00000000
30010000
10000000
00000000
,
00000000
00000000
00100000
01000000
00000000
00100000
10000000
00000000
,
00010000
00200000
00000000
00000000
,
00300000
01000000
10000000
01010000
,
00000000
01000000
00010000
00011000
,
00000000
00000010
00000100
00001000
,
00010000
01000000
00100000
00000000
00000000
00000000
00000000
00000000
,
00000000
20000000
00000000
30010000
,
01000000
00000000
20000000
00000000
00000000
30010000
10000000
00000000
,
00000000
00000000
01000000
10000000
00010000
00100000
00010000
00000000
,
01000000
00200000
00000000
00000000
,
00000000
00000000
00300000
00010000
,
00001000
00010000
00000000
00100000
,
00000100
00100000
00001000
00000000
00000000
00000000
00000100
00000000
,
00010000
00000000
00000000
00000000
00000000
00000000
00000000
00000000
00000000
00000000
00000000
00000000
00000000
00000000
00000000
00000000
00000000
00000000
00000000
00000000
00000000
00000000
00000000
00000000
00000000
00000000
00000000
00000000
00000000
00000000
00000000
00000000
00000000
00000000
00000000
00000000
00000000
00000000
00000000
00000000
00000000
00000000
00000000
00000000
00000000
00000000
00000000
00000000
00000200
00000000
00000000
00000000
00000000
00000000
00000000
00000000
00000000
00000000
00000000
00000000
00000000
00000000
00000000
00000000
00000000
00000000
00000000
00000000
00000000
00000000
00000000
00000000
00000000
00000000
00000000
00000000
00000000
00000000
00000000
00000000
00000000
00000000
00000000
00000000
00000000
00000000
00000000
00000000
00000000
00000000
00000000
00000000
00000000
00000000
00000000
00000000
00000000
00000000
00000000
00000000
00000000
00000300
00000000
00000000
00000000
00000000
00000000
00000000
00000000
00000000
00000000
00000000
00000000
00000000
00000000
00000000
00000000
00000000
00000000
00000000
00010000
00000000
00000000
00000000
00000000
00000000
00000000
00000000
00000000
00000000
00000000
00000000
00000000
00000000
00000000
00000000
00000000
00000000
00000000
00000000
00000000
00000000
00000000
00000000
00000000
00000000
00000000
00000000
00000000
00000000
00000000
00000000
00000000
00000000
00000000
00000000
00000000
00000000
00000000
00000000
00000000
00000000
00000000
00000000
00000000
00000000
00000000
00000000
00000010
00000000
00000000
00000000
00000000
00000000
00000000
00000000
00000000
00000000
00000000
00000000
00000000
00000000
00000000
00000000
00000000
00000000
00000000
00000000
00000000
00000000
00000000
00000000
,
00001000
00000100
00001000
00000000
00000000
00000000
00000100
00000000
,
00000010
00000200
00000000
00001300
,
00001000
00000001
00000200
00000000
00000000
00000000
00000300
00000000
,
00001000
00000010
00000000
00000000
00000000
00000001
00000100
00001000
,
00000010
00000000
00000000
00000000
00000000
00000000
00000000
00000000
00000001
00000000
00000000
00000000
00000000
00000000
00000000
00000000
00002000
00000000
00000000
00000000
00000000
00000000
00000000
00000000
00000000
00000000
00000000
00000000
00000000
00000000
00000000
00000000
00000000
00000000
00000000
00000000
00000000
00003000
00000000
00000000
00000000
00000000
00000000
00000000
00000000
00000000
00000000
00000000
00001000
00000000
00000000
00000000
00000000
00000000
00000000
00000000
00000000
00000000
00000000
00000000
00000000
00000000
00000000
00000000
,
00010000
00100000
00000000
00010000
,
00100000
10000000
00010000
00000000
00000000
00000000
01000000
00000000
,
10000000
00000000
02000000
00000000
03000000
00010000
10000000
01000000
,
10000000
00100000
01000000
00000000
00000000
00000000
00001000
00000000
,
00000100
00000010
00000000
00000001
,
00001000
00000000
00000000
00000010
00000000
00000000
00000002
00000000
00000000
00000000
00000000
00000000
00000000
00000000
00000000
00000000
00000000
00000000
00000000
00000000
00000003
00000000
00000000
00000000
,
00000100
00001000
00000020
00000000
00000000
00000000
00000130
00001000
,
00000010
00000100
00000020
00000000
00000000
00000000
00000000
00000000
,
00000000
00000000
00000000
00000130
,
00001000
00000000
00000000
00000000
00000000
00000000
00000000
00000000
00000000
00000000
00000000
00000000
00000000
00000000
00000000
00000000
00000000
00000000
00000000
00000000
00000000
00000000
00000000
00000000
00000000
00000000
00000000
00000000
00000000
00000000
00000000
00000000
00000000
00000000
00000000
00000000
00000000
00000000
00000000
00000000
00000000
00000000
00000000
00000000
00000000
00000000
00000000
00000000
00002000
00000000
00000000
00000000
00000000
00000000
00000000
00000000
00000000
00000000
00000000
00000000
00000000
00000000
00000000
00000000
00000000
00000000
00000000
00000000
00000000
00000000
00000000
00000000
00000000
00000000
00000000
00000000
00000000
00000000
00000000
00000000
00000000
00000000
00000000
00000000
00000000
00000000
00000000
00000000
00000000
00000000
00000000
00000000
00000000
00000000
00000000
00000000
00000000
00000000
00000000
00000000
00000000
00000000
00000000
00000000
00000000
00000000
00000000
00000000
00000000
00000000
00000000
00000000
00000000
00000000
00000000
00000000
00000000
00000000
00000000
00000000
00000000
00000000
00000000
00000000
00000000
00000000
00000000
00000000
00000000
00000000
00000000
00000000
00000000
00000000
00000000
00000000
00000000
00000000
00000000
00000000
00000000
00000000
00000000
00000000
02000000
00000000
00000000
00000000
00000000
00003000
00000000
00000000
00000000
00000000
00000000
00000000
00000000
00000000
00000000
00000000
00000000
00000000
00000000
00000000
00000000
00000000
00000000
00000000
00000000
00000000
00000000
00000000
00000000
00000000
00000000
00000000
00000000
00000000
00000000
00000000
00000000
00000000
00000000
00000000
00000000
00000000
00000000
00000000
00000000
00000000
00000000
00000000
,
00000000
03020000
00000000
00032000
,
00000000
00000000
00000000
00000000
00000000
00000000
00000000
00000000
00000000
00000000
00000000
00000000
00000000
00000000
00000000
00000000
00000000
00000000
00000000
00000000
00000000
00000000
00000000
00000000
00000000
00000000
00000000
00000000
00000000
00000000
00000000
00000000
00000000
00000000
00000000
00000000
00000000
00000000
00000000
00000000
00000000
00000000
00000000
00000000
00000000
00000000
00000000
00003000
00200000
00000000
00000000
00000000
00000000
00000000
00000000
00000000
00000000
00000000
00000000
00000000
00000000
00000000
00000000
00000000
00000000
00000000
00000000
00000000
00000000
00000000
00000000
00000000
00000000
00000000
00000000
00000000
00000000
00000000
00000000
00000000
00000000
00000000
00000000
00000000
00000000
00000000
00000000
00000000
00000000
00000000
00000000
00000000
00000000
00000000
00000000
00000000
00000000
00000000
00000000
00000000
00000000
00000000
00000000
00000000
00000000
00000000
00000000
00000000
00000000
00000000
00000000
00000000
00000000
00000000
00000000
00000000
00000000
00000000
00000000
00000000
00000000
00000000
00000000
00000000
00000000
00000000
00000000
00000000
00000000
00000000
00000000
00000000
00000000
00000000
00000000
00000000
00000000
00000000
00000000
00000000
00000000
00300000
00000000
00000000
00002000
00000000
00000000
00000000
00000000
00000000
00000000
00000000
00000000
00000000
00000000
00000000
00000000
00000000
00000000
00000000
00000000
00000000
00000000
00000000
00000000
00000000
00000000
00000000
00000000
00000000
00000000
00000000
00000000
00000000
00000000
00000000
00000000
00000000
00000000
00000000
00000000
00000000
00000000
00000000
00000000
00000000
00000000
00000000
00000000
00000000
00000000
00000000
,
00000000
00000000
00000000
00000000
00000000
00000000
00000000
00000000
00000000
00000000
00000000
00000000
00000000
00000000
00000000
00000000
00000000
00000000
00000000
00000000
00000000
00000000
00000000
00000000
00000000
00000000
00000000
00000000
00000000
00000000
00000000
00000000
00000000
00000000
00000000
00000000
00000000
00000000
00000000
00000000
00000000
00000000
00000000
00000000
00000000
00000000
00000000
00000000
00000200
00000000
00000000
00003000
00000000
00000000
00000000
00000000
00000000
00000000
00000000
00000000
00000000
00000000
00000000
00000000
00000000
00000000
00000000
00000000
00000000
00000000
00000000
00000000
00000000
00000000
00000000
00000000
00000000
00000000
00000000
00000000
00000000
00000000
00000000
00000000
00000000
00000000
00000000
00000000
00000000
00000000
00000000
00000000
00000000
00000000
00000000
00000000
00000000
00000000
00000000
00000000
00000000
00000000
00000000
00000000
00000000
00000000
00000000
00000000
00000000
00000000
00000000
00000000
00000000
00000000
00000000
00000000
00000000
00000000
00000000
00000000
00000000
00000000
00000000
00000000
00000000
00000000
00000000
00000000
00000000
00000000
00000000
00000000
00000000
00000000
00000000
00000000
00000000
00000000
00000000
00000000
00000300
00000000
00000000
00000000
00200000
00000000
00000000
00000000
00000000
00000000
00000000
00000000
00000000
00000000
00000000
00000000
00000000
00000000
00000000
00000000
00000000
00000000
00000000
00000000
00000000
00000000
00000000
00000000
00000000
00000000
00000000
00000000
00000000
00000000
00000000
00000000
00000000
00000000
00000000
00000000
00000000
00000000
00000000
00000000
00000000
00000000
00000000
00000000
00000000
00000000
00000000
00000000
,
00000000
00300000
00001000
00000000
00010000
00000000
00001000
00000000
,
00000100
00000000
00100000
00000000
00000100
00010000
00100000
00000000
,
00010000
00100000
00000100
00000000
00010000
00100000
00000010
00000000
,
00000100
00001000
00010000
00000000
00000000
00001100
00000000
00000000
,
00000000
00001000
00000100
00000000
00000010
00000000
00000100
00000000
,
00001000
00000000
00010000
00000000
00001000
00000010
00010000
00000000
,
00001000
00000000
00010000
00000000
00000010
00000100
00001000
00000000
,
00000001
00000100
00001000
00000000
00000010
00000000
00000001
00000000
,
00001000
00000000
01000000
00000000
10000000
00010000
01000000
00010000
,
10000000
01000000
00010000
10000000
00010000
01000000
00010000
10000000
,
00010000
00000000
01000000
00000000
00000000
00100000
00000000
00000000
00010000
00000000
00000000
10000000
00000000
00000000
00100000
00000000
,
00000000
00010000
00000000
00000000
00002000
00000000
00000000
00000000
00000000
00000000
00000000
00000000
00000000
00000000
00000000
00000000
,
00003000
00001000
01000000
00000000
,
00000000
00000000
00001000
01000000
00000000
00100000
00000100
00000000
,
00010000
00000010
00000000
00000000
00000000
00000000
00000000
00000000
;

//--------------- dance-double - B. M'Rey ----------------
#NOTEDATA:;
#STEPSTYPE:dance-double;
#DESCRIPTION:B. M'Rey;
#DIFFICULTY:Hard;
#METER:11;
#RADARVALUES:0.351874,0.520102,0,0.319449,0.142911,293,293,0,38,0,0,0.351874,0.520102,0,0.319449,0.142911,293,293,0,38,0,0;
#NOTES:
00000000
00000000
00000000
00000000
,
00000000
00000000
00000000
00000000
,
00000000
00000000
00000000
00000000
,
00000000
00000000
00000000
00000000
,
01000000
00100000
00001000
01000000
,
00100000
00010000
00001000
00001000
,
00000001
00000000
00001000
00000001
00001000
00000001
00001000
00000000
,
00000100
00001000
00000100
00001000
,
00100000
00000000
01000000
00100000
10000000
01000000
00010000
00000000
,
10000000
00000000
00000000
00000000
10000000
00000000
00010000
00000000
10000000
00000000
00000000
00000000
00100000
10000000
00100000
10000000
,
00100000
00000000
00001000
00000000
00000001
00000000
00000100
00000000
00000010
00000000
00000000
00000000
00000010
00000100
00000010
00000100
,
00000010
00001000
00000001
00000000
00000100
00000000
00000010
00000000
,
00000001
00000000
00000000
00000000
00001000
00000000
00000000
00000001
00001000
00000000
00000000
00000001
00001000
00000000
00000000
00000000
,
00000000
00000000
00001000
00000000
00010000
00000100
00001000
00000000
,
00000000
00000000
00001000
00000010
00010000
00000100
00001000
00000000
,
00000000
00000000
00000000
00000000
00100000
00000000
00000000
00000100
00010000
00000000
00001000
00000000
00100000
00000000
00000000
00000100
,
00010000
00001000
00100000
00000000
00010000
00000000
00001000
00000000
,
00100000
00000000
00010000
00000000
01000000
00100000
10000000
00010000
,
01000000
10000000
02000000
00000000
00000000
13000000
00010000
00000000
,
00000000
00000000
00100000
01000000
00100000
00000000
01000000
00000000
00010000
00000000
00100000
00000000
00000000
00000000
00010000
00000000
,
00100000
00000000
02000000
00000000
00000000
00000000
00000000
03000000
,
00000000
00000000
00000000
00000000
00100000
00000000
00000000
00000000
00000100
00000000
00010000
00001000
00100000
00000000
00000000
00000000
,
00010000
00000000
00000010
00001000
00000100
00000010
00010000
00000000
,
00000100
00000000
00000000
00000000
00000001
00000000
00000000
00000100
00000001
00000000
00000100
00000000
00001000
00000000
00000000
00000010
,
00001000
00000010
00000100
00000000
00000100
00000000
00000010
00000000
,
00000100
00000000
00000200
00000000
00000000
00001300
00010000
00100000
,
00001000
00000000
00010000
00000000
00200000
00000000
00000000
00000000
00000000
00000000
00000100
00000000
00000200
00000000
00000000
00300300
,
00000000
01000000
00001000
00010000
00001000
00100000
00001000
00010000
,
01000000
00010000
00002000
00000000
00000000
00000000
00000000
00000000
,
00000000
00000000
00000000
00000000
00000000
00000000
00000000
00000000
00000000
00000000
00000000
00000000
00000000
00000000
00000000
00000000
00000000
00000000
00000000
00000000
00000000
00000000
00000000
00000000
00000000
00000000
00000000
00000000
00000000
00000000
00000000
00000000
00000000
00000000
00000000
00000000
00000000
00000000
00000000
00000000
00000000
00000000
00000000
00000000
00000000
00000000
00000000
00000000
00000000
00000000
00000000
00000000
00000000
00000000
00000000
00000000
00000000
00000000
00000000
00000000
00000000
00000000
00000000
00000000
00000000
00003000
00000000
00000000
00000000
00000000
00000000
00000000
00000000
00000000
00000000
00000000
00000000
00000000
00000000
00000000
00000000
00000000
00000000
00000000
00000000
00000000
00000000
00000000
00000000
00000000
00000000
00000000
00000000
00000000
00000000
00000000
00000000
00000000
00000000
00000000
00000000
00000000
00000000
00000000
00000000
00000000
00000000
00000000
00000000
00000000
00000000
00000000
00000000
00000000
00000000
00000000
00000000
00000000
00000000
00000000
00000000
00000000
00000000
00000000
00000000
00000000
00000000
00000000
00000000
00000000
00000000
00000000
00000000
00000000
00000000
00000000
00000000
00000000
00000000
00000000
00000000
00000000
00000000
00000000
10000000
00000000
00000000
00000000
00000000
00000000
00000000
00000000
00000000
00000000
00000000
00000000
00000000
00000000
00000000
00000000
00000000
00000000
00000000
00000000
00000000
00000000
00000000
00000000
00000000
00000000
00000000
00000000
00000000
00000000
00000000
00000000
00000000
00000000
00000000
00000000
00000000
00000000
00000000
00000000
00000000
00000000
00000000
00000000
00000000
00000000
00000000
00000000
,
01000000
00200000
00300000
10000000
,
00010000
10000000
02000000
00000000
03000000
00000000
00001000
00000000
,
00000100
00000000
00002000
00000000
00003000
00000010
00000100
00001000
,
00000010
00000100
00000002
00000000
00000003
00000000
00000020
00000000
,
00000230
00000000
00000000
00000000
00002300
00000000
00000000
00000000
00000000
00003000
00000000
00000000
00010000
00000000
00000000
00000000
,
10000000
00010000
10000000
00000000
00000000
00000000
00000000
00000000
,
10000000
01000000
00200000
00000000
00300000
00010000
10000000
01000000
,
00100000
00000000
00010000
00000000
00002000
00000000
00000000
00000000
00000000
00003000
00000000
00000000
00000020
00000000
00000000
00000000
,
00000230
00000000
00000000
00000000
00000000
00000000
00000302
00000000
00000000
00000000
00000000
00000000
00000000
00000003
00000000
00000000
00000000
00000000
00000010
00000000
00000000
00000000
00000000
00000000
,
00000100
00000000
00000010
00000000
00002000
00000000
00000000
00000000
00000000
00003000
00000000
00000000
00010000
00000000
00000000
00000000
,
00100000
00000000
02000000
00000000
03000000
00010000
00100000
10000000
,
01000000
00100000
00200000
00000000
00300000
00000000
00010000
00000000
,
00002000
00000000
00000000
00000000
00000000
00000000
00000000
00000000
00000000
00003000
00000000
00000000
00000002
00000000
00000000
00000000
00000000
00000000
00000000
00000000
00000000
00000000
00000000
00000000
00000000
00000000
00000000
00000000
00000000
00000003
00000000
00000000
00000000
00000000
00000000
00000000
00000100
00000000
00000000
00000000
00000000
00000000
00000000
00000000
00000000
00000000
00000000
00000000
,
00001000
00000010
00000200
00000000
00000000
00000000
00000300
00000000
,
00001000
00000000
00010000
00000000
02000000
00000000
00000000
00000000
00000000
03000000
00100000
00000000
10000000
00000000
00000000
00010000
,
00000000
01000000
00000000
00100000
00000000
20000000
00000000
00000000
00000000
00000000
00000000
00000000
00000000
00000000
00000000
00000000
,
00000000
00000000
00000000
00000000
00000000
00000000
00000000
00000000
30000000
00000000
00000000
00000000
01000000
00010000
00000000
00000000
,
00100000
00001000
00000000
00000000
00200000
00000000
00000000
00000000
00000000
00000000
00000000
00000000
00320000
00000000
00000000
00000000
,
00000000
00000000
00000000
00000000
00000000
00000000
00000000
00000000
00000000
00000000
00000000
00000000
00000000
00000000
00000000
00000000
00002000
00030000
00000000
00000000
00000000
00000000
00000000
00000000
00000000
00000000
00000000
00000000
00000000
00000000
00000000
00000000
00000000
00000000
00000000
00000000
00000000
00000000
00000000
00000000
00000000
00000000
00000000
00000000
00000000
00000000
00000000
00003000
00000200
00000000
00000000
00000000
00000000
00000000
00000000
00000000
00000000
00000000
00000000
00000000
00000000
00000000
00000000
00000000
,
00000000
00000320
00000000
00000130
,
00000000
00000020
00000000
00000032
,
00000000
00000003
00000001
00000010
00000001
00000100
00000010
00001000
,
00000010
00000100
00000010
00000001
00000100
00001000
00000000
00100000
,
00001000
00100000
00000000
01000000
00100000
00010000
00001000
01000000
,
00010000
00001000
00000000
01000000
00010000
00001000
00000000
01000000
,
00001000
00100000
00000000
10000000
00000000
01000000
00100000
10000000
,
00010000
00000000
00000100
00001000
00001000
00000100
00000000
00000001
,
00000010
00001000
00000001
00000100
00001000
00100000
00000000
00010000
,
01000000
00010000
00000000
00100000
00010000
01000000
00000000
00010000
,
00100000
00010000
00100000
00010000
00100000
10000000
00100000
10000000
,
00100000
01000000
00100000
01000000
00100000
00010000
00100000
00010000
,
00100000
00000000
00000000
00000000
00010000
00000000
00000000
00001000
00000000
00000000
00100000
00000000
00000000
00010000
00000000
00000000
,
00000100
00000000
00000000
00200000
00000000
00000000
00000000
00000000
00000000
00000000
00000000
00000000
00000000
00000000
00000000
00000000
,
00000000
00000000
00000000
00300100
00000000
00000000
00002000
00000000
00000000
00000000
00000000
00000000
00000000
00000000
00000000
00003000
,
00000000
00000000
00001000
00010000
00000000
00001000
00010000
00000000
,
00001000
00010000
00000000
00000000
00000000
00000000
00000000
00000000
;
